2 сезон

iTunes

MVO

1

2 сезон

iTunes

iTunes

1 сезон

RePack

30

Новинка

ВАЖНО

ИГРА 18+

pack

RePack

MK11
pack

Легкие деньги

RePack

jed

RePack

fifa19

RePack

RDR2

RePack

NEED FOR SPEED™ PAYBACK

4 сезон

9 сезон

Бесстыжие 9 сезон

Все сериалы

все сериалы на PB.wtf

RePack

FAR CRY 5

Anonymous, добрый вечер, мы не успеваем собрать деньги на оплату серверов за декабрь и январь, помогите нам пожалуйста в это трудное время. В качестве благодарности мы отключим Вам всю рекламу на сайте (укажите свой ник в строку Ваше имя)!

×
  
Magnet ссылка

Хоббит: Пустошь Смауга / The Hobbit: The Desolation of Smaug (Питер Джексон / Peter Jackson) [2013, Фэнтези, Приключения, BDrip, 1080p] OverUnder / Вертикальная стереопара pb.wtf

Хоббит: Пустошь Смауга через торрент pb.wtf

Размер: 17.42 GB | Добавлен: 6 лет 9 мес. назад | Торрент скачан:1199 раз
Скачать  

26-03-2014 12:55 Хоббит: Пустошь Смауга Скачать торрент  

Хоббит: Пустошь Смауга / The Hobbit: The Desolation of Smaug

Год выпуска: 2013
Страна: США, Новая Зеландия
Студия: Warner Bros. Pictures, New Line Cinema, Metro Gold
Жанр: Фэнтези, Приключения
Продолжительность: 2:41:17

Перевод: Профессиональный дублированный(Лицензия)
Русские субтитры: есть
Режиссер на русском: Питер Джексон
Режиссер на английском: Peter Jackson
В ролях: Мартин Фриман, Ричард Армитедж, Иэн МакКеллен, Эванджелин Лилли, Орландо Блум, Люк Эванс, Бенедикт Камбербэтч, Ли Пейс, Кен Стотт, Эйдан Тернер

Роли озвучивали: Илья Хвостиков, Игорь Балалаев, Василий Бочкарев, Марьяна Спивак, Олег Вирозуб
Описание: Продолжение путешествия хоббита Бильбо Бэггинса, волшебника Гэндальфа и 13 отважных гномов. Их компания обязана завершить своё путешествие к Одинокой горе. Там они должны встретиться с величайшей опасностью из всех — созданием куда более ужасающим, чем все их прошлые противники, которое проверит на прочность не только их мужество, но крепость их дружбы и правильность выбранного пути, — драконом Смаугом.

Сэмпл: http://www.sendspace.com/file/f4ibro

Качество: BDrip 1080p
Контейнер: MKV
Формат 3D: OverUnder / Вертикальная стереопара
Порядок ракурсов: левый ракурс первый
Видео кодек: x264
Аудио кодек: AC3
Видео: AVC / High@L5.0 / 23,976 fps / 1920х1600 / 13,6 Мбит/сек
Аудио: Русский / AC3 / 48 KHz / 5.1 ch / 448 Кбит/сек(Лицензия)
Аудио 2: Украинский / AC3 / 48 KHz / 5.1 ch / 448 Кбит/сек(Лицензия)
Аудио 3: Английский / AC3 / 48 KHz / 5.1 ch / 640 Kbps
Субтитры: Русские Форсированные (в т.ч. на речь эльфов и орков) включены по умолчанию

Релиз группы: ВНИМАНИЕ ! На встроенных ТВ-плееерах работать не будет!!!

Железные плееры на которых воспроизводятся полные стереопары:Popcorn C-200 , Dune HD Smart D1 , Dune HD DUO , Dune HD Smart H1 , Dune HD Smart B1 , Dune HD Max , Dune HD TV-303D , Dune HD Base 3D

Общее
Уникальный идентификатор : 181598623194756434060542306032084355757 (0x889E9F647C21162F81818CAA2CA08AAD)
Полное имя : E:закачкиThe Hobbit The Desolation of Smaug.Rip by SeRoGa00.mkv
Формат : Matroska
Версия формата : Version 2
Размер файла : 17,4 Гбайт
Продолжительность : 2 ч. 41 м.
Общий поток : 15,5 Мбит/сек
Дата кодирования : UTC 2014-03-26 11:42:31
Программа кодирования : mkvmerge v3.4.0 ('Rapunzel') сборка от May 15 2010 09:38:20
Библиотека кодирования : libebml v0.8.0 + libmatroska v0.9.0

Видео
Идентификатор : 1
Формат : AVC
Формат/Информация : Advanced Video Codec
Профиль формата : High@L5.0
Параметр CABAC формата : Да
Параметр ReFrames формата : 4 кадра
Идентификатор кодека : V_MPEG4/ISO/AVC
Продолжительность : 2 ч. 41 м.
Битрейт : 13,6 Мбит/сек
Ширина : 1920 пикселей
Высота : 1600 пикселей
Соотношение сторон : 1,200
Частота кадров : 23,976 кадра/сек
Цветовое пространство : YUV
Субдискретизация насыщенности : 4:2:0
Битовая глубина : 8 бит
Тип развёртки : Прогрессивная
Бит/(Пиксели*Кадры) : 0.185
Размер потока : 15,3 Гбайт (88%)
Заголовок : Rip by SeRoGa00
Библиотека кодирования : x264 core 138 r2356 a1d3d17
Настройки программы : cabac=1 / ref=4 / deblock=1:-3:-3 / analyse=0x3:0x113 / me=umh / subme=9 / psy=1 / psy_rd=1.00:0.15 / mixed_ref=1 / me_range=24 / chroma_me=1 / trellis=2 / 8x8dct=1 / cqm=0 / deadzone=21,11 / fast_pskip=1 / chroma_qp_offset=-3 / threads=9 / lookahead_threads=1 / sliced_threads=0 / nr=0 / decimate=1 / interlaced=0 / bluray_compat=0 / constrained_intra=0 / bframes=8 / b_pyramid=2 / b_adapt=2 / b_bias=0 / direct=3 / weightb=1 / open_gop=0 / weightp=2 / keyint=250 / keyint_min=23 / scenecut=40 / intra_refresh=0 / rc_lookahead=60 / rc=crf / mbtree=1 / crf=18.0 / qcomp=0.60 / qpmin=10 / qpmax=69 / qpstep=4 / vbv_maxrate=40000 / vbv_bufsize=40000 / crf_max=0.0 / nal_hrd=none / ip_ratio=1.40 / aq=1:1.00
Язык : English

Аудио #1
Идентификатор : 2
Формат : AC-3
Формат/Информация : Audio Coding 3
Расширение режима : CM (complete main)
Идентификатор кодека : A_AC3
Продолжительность : 2 ч. 41 м.
Вид битрейта : Постоянный
Битрейт : 448 Кбит/сек
Каналы : 6 каналов
Расположение каналов : Front: L C R, Side: L R, LFE
Частота : 48,0 КГц
Битовая глубина : 16 бит
Метод сжатия : С потерями
Размер потока : 517 Мбайт (3%)
Язык : Russian

Аудио #2
Идентификатор : 3
Формат : AC-3
Формат/Информация : Audio Coding 3
Расширение режима : CM (complete main)
Идентификатор кодека : A_AC3
Продолжительность : 2 ч. 41 м.
Вид битрейта : Постоянный
Битрейт : 448 Кбит/сек
Каналы : 6 каналов
Расположение каналов : Front: L C R, Side: L R, LFE
Частота : 48,0 КГц
Битовая глубина : 16 бит
Метод сжатия : С потерями
Размер потока : 517 Мбайт (3%)
Язык : Ukrainian

Аудио #3
Идентификатор : 4
Формат : AC-3
Формат/Информация : Audio Coding 3
Расширение режима : CM (complete main)
Идентификатор кодека : A_AC3
Продолжительность : 2 ч. 41 м.
Вид битрейта : Постоянный
Битрейт : 640 Кбит/сек
Каналы : 6 каналов
Расположение каналов : Front: L C R, Side: L R, LFE
Частота : 48,0 КГц
Битовая глубина : 16 бит
Метод сжатия : С потерями
Размер потока : 738 Мбайт (4%)
Язык : English

Текст
Идентификатор : 5
Формат : UTF-8
Идентификатор кодека : S_TEXT/UTF8
Идентификатор кодека/Информация : UTF-8 Plain Text
pb.wtf



Скачать Хоббит: Пустошь Смауга через торрент http://s51.radikal.ru/i131/1403/6e/7258f3765642.png Скачать фильм Хоббит: Пустошь Смауга через торрент бесплантно в хорошем качестве Описание: Продолжение путешествия хоббита Бильбо Бэггинса, волшебника Гэндальфа и 13 отважных гномов. Их компания обязана завершить своё ... 9.2 10 34
Info! Золотая раздача, скачанное не засчитывается.
Торрент: Зарегистрирован [2014-03-26 12:55] · скачан: 1 199 раз
Статус: √ проверено
Размер: 17.42 GB
Как cкачать? Как скачать Хоббит: Пустошь Смауга через торрент | UTorrent



Последний раз редактировалось: serega768 (2015-05-04 04:59), всего редактировалось 1 раз

28-11-2019 20:33  

Отключить всю рекламу на сайте

26-03-2014 15:09 Хоббит: Пустошь Смауга Скачать торрент  

serega768 писал(а):

Качество: BDrip

BDrip 1080p Указываем так.Я Вам уже делал замечание.В следующий раз статус буду менять.
pb.wtf



26-03-2014 17:05 Хоббит: Пустошь Смауга Скачать торрент  

Скорость не радует..., скачал 38% и такое ощущение что вернулся Dial uppb.wtf



17-04-2014 09:14 Хоббит: Пустошь Смауга Скачать торрент  

телик не поддерживает формат что делать?pb.wtf



16-06-2014 14:21 Хоббит: Пустошь Смауга Скачать торрент  

:search: не могу на телике посмотреть. недавно скачал фильм со следующими характеристиками:

Видео
Идентификатор : 1
Формат : AVC
Формат/Информация : Advanced Video Кодек
Профиль формата : High@L4.1
Параметр CABAC формата : Да
Параметр ReFrames формата : 8 кадров
Идентификатор кодека : V_MPEG4/ISO/AVC
Длительность : 1 ч. 33 м.
Битрейт : 4450 Кбит/сек
Номинальный битрейт : 4800 Кбит/сек
Ширина : 1280 пикселей
Высота : 534 пикселя
Соотношение сторон : 2,40:1
Режим частоты кадров : Постоянный
Частота кадров : 23,976 кадра/сек
Цветовое пространство : YUV
Субдискретизация насыщенности : 4:2:0
Битовая глубина : 8 бит
Тип развёртки : Прогрессивная
Бит/(Пиксели*Кадры) : 0.272
Размер потока : 2,89 Гбайт (89%)
Библиотека кодирования : x264 core 128 r2216M 198a7ea

этот фильм пошел. объясните почему тот фильм показывает, а хоббита не тянет?pb.wtf



29-06-2014 15:43 Хоббит: Пустошь Смауга Скачать торрент  

makkonser писал(а):

:search: не могу на телике посмотреть. недавно скачал фильм со следующими характеристиками:

Видео
Идентификатор : 1
Формат : AVC
Формат/Информация : Advanced Video Кодек
Профиль формата : High@L4.1
Параметр CABAC формата : Да
Параметр ReFrames формата : 8 кадров
Идентификатор кодека : V_MPEG4/ISO/AVC
Длительность : 1 ч. 33 м.
Битрейт : 4450 Кбит/сек
Номинальный битрейт : 4800 Кбит/сек
Ширина : 1280 пикселей
Высота : 534 пикселя
Соотношение сторон : 2,40:1
Режим частоты кадров : Постоянный
Частота кадров : 23,976 кадра/сек
Цветовое пространство : YUV
Субдискретизация насыщенности : 4:2:0
Битовая глубина : 8 бит
Тип развёртки : Прогрессивная
Бит/(Пиксели*Кадры) : 0.272
Размер потока : 2,89 Гбайт (89%)
Библиотека кодирования : x264 core 128 r2216M 198a7ea

этот фильм пошел. объясните почему тот фильм показывает, а хоббита не тянет?

Ширина : 1280 пикселей
Высота : 534 пикселя , а здесь 1920х1600pb.wtf



22-12-2014 16:49 Хоббит: Пустошь Смауга Скачать торрент  

Просьба выкладывать формат, поддерживаемый телевизором. Неужели так сложно? Сам знаю что формат 5.0 не поддерживает, но неужели он настолько лучше 4.1, что кодируете в 5.0.pb.wtf



    Дорогой пользователь! Огромная просьба, поблагодарите релизера, оцените раздачу и оставьте свои комментарий, если Вы скачали Хоббит: Пустошь Смауга через торрент бесплатно! Внесите свою лепту в развитие PiratBit!
    Комментировать посты могут только пользователи прошедшие не сложную регистрацию
    Показать сообщения:    

    Хоббит: Пустошь Смауга через торрент
    Скачать бесплатно Хоббит: Пустошь Смауга
    Хоббит: Пустошь Смауга скачать торрент
    Хоббит: Пустошь Смауга смотреть онлайн
    Cкачать фильм Хоббит: Пустошь Смауга бесплатно
    Хоббит: Пустошь Смауга скачать торрент в хорошем качестве
    Хоббит: Пустошь Смауга смотреть онлайн бесплатно в хорошем качестве


    Вы не можете начинать темы
    Вы не можете отвечать на сообщения
    Вы не можете редактировать свои сообщения
    Вы не можете удалять свои сообщения
    Вы не можете голосовать в опросах
    Вы не можете прикреплять файлы к сообщениям
    Вы можете скачивать файлы