Всегда рабочее зеркало без VPN и Proxy просто перед .vidak.icu напиши любое слово или цифру, Пример http://8gpy.vidak.icu

MVO

MVO

1 сезон

1

1 сезон

iTunes

1 сезон

13

1 сезон

Deluxe

pack

Рекомендуем

Repack

30

ВАЖНО

RePack

MK11

RePack

jed

RePack

fifa19

RePack

RDR2

RePack

NEED FOR SPEED™ PAYBACK

Кинопоиск HD

6 сезон

 Острые козырьки 6 сезон

Все сериалы

все сериалы на PB.wtf

RePack

FAR CRY 5
  
Magnet ссылка

Белка и Стрелка: Лунные приключения (Александр Храмцов, Инна Евланникова, Вадим Сотсков) [2013 г., Мультфильм, комедия, приключения, семейный, BDRip, Лицензия] pb.wtf

Белка и Стрелка: Лунные приключения через торрент pb.wtf

Размер: 1.37 GB | Добавлен: 8 лет 4 мес. назад | Торрент скачан:810 раз
Смотреть онлайн Белка и Стрелка: Лунные приключения | Скачать    Ребята, помогите собрать деньги на оплату серверов!!!

28-03-2014 20:16 Белка и Стрелка: Лунные приключения Скачать торрент  

Белка и Стрелка: Лунные приключения
Год выпуска: 2013
Страна: Россия
Жанр: Мультфильм, комедия, приключения, семейный
Продолжительность: 01:12:0
Перевод: Не требуется
Субтитры: Нет

Режиссер: Александр Храмцов, Инна Евланникова, Вадим Сотсков

В ролях: Нонна Гришаева, Марьяна Спивак, Евгений Миронов, Тимур Родригез, Сергей Гармаш, Лев Аксельрод, Илья Храмцов, Стася Кудякова, Алексей Колган, Роман Квашнин

Описание: На Земле начали происходить странные и загадочные явления, несущие угрозу для планеты. Их след ведет в космос, на темную сторону Луны. Раскрыть тайну века поручили отряду Казбека. Белка, Стрелка и вся команда веселых и отважных героев отправляются на Луну, чтобы выполнить опасную миссию. Страсть к приключениям, искрометный юмор и великий дух космического братства поддержат в минуту великой опасности и помогут раскрыть всю правду о Луне и ее обитателях.

Качество: BDRip[рип с BluRay 1080p]
Формат: MPEG-4
Видео кодек: XviD
Аудио кодек: AC3
Видео: 720x400 (1.80:1), 25 fps, XviD build 50 ~2258 kbps avg, 0.31 bit/pixel
Аудио#1: 48 kHz, AC3 Dolby Digital, 3/2 (L,C,R,l,r) + LFE ch, ~448 kbps
General
Complete name : D:uaBelka.i.Strelka.2014.O.HDRip.1400MB.avi
Format : AVI
Format/Info : Audio Video Interleave
File size : 1.37 GiB
Duration : 1h 12mn
Overall bit rate : 2 716 Kbps
Writing application : VirtualDubMod 1.5.10.2 (build 2540/release)
Writing library : VirtualDubMod build 2540/release

Video
ID : 0
Format : MPEG-4 Visual
Format profile : Advanced [email protected]
Format settings, BVOP : Yes
Format settings, QPel : No
Format settings, GMC : No warppoints
Format settings, Matrix : Custom
Codec ID : XVID
Codec ID/Hint : XviD
Duration : 1h 12mn
Bit rate : 2 259 Kbps
Width : 720 pixels
Height : 400 pixels
Display aspect ratio : 16:9
Frame rate : 25.000 fps
Color space : YUV
Chroma subsampling : 4:2:0
Bit depth : 8 bits
Scan type : Progressive
Bits/(Pixel*Frame) : 0.314
Stream size : 1.14 GiB (83%)
Writing library : XviD 1.2.1 (UTC 2008-12-04)

Audio
ID : 1
Format : AC-3
Format/Info : Audio Coding 3
Mode extension : CM (complete main)
Codec ID : 2000
Duration : 1h 12mn
Bit rate mode : Constant
Bit rate : 448 Kbps
Channel(s) : 6 channels
Channel positions : Front: L C R, Side: L R, LFE
Sampling rate : 48.0 KHz
Stream size : 231 MiB (16%)
Alignment : Split accross interleaves
Interleave, duration : 40 ms (1.00 video frame)
Interleave, preload duration : 500 ms

Белка и Стрелка скачать торрент


pb.wtf



Скачать Белка и Стрелка: Лунные приключения через торрент https://pic1.kartinco.top/images/61/5bu94.jpg Скачать, смотреть онлайн Белка и Стрелка: Лунные приключения бесплантно в хорошем качестве Описание: На Земле начали происходить странные и загадочные явления, несущие угрозу для планеты. Их след ведет в космос, на темную сторону ... 9.9 10 16
Info! Золотая раздача, скачанное не засчитывается.
Торрент: Зарегистрирован [2014-03-28 20:16] · скачан: 810 раз
Статус: √ проверено
Размер: 1.37 GB
Как cкачать? Как скачать Белка и Стрелка: Лунные приключения через торрент | UTorrent

% Раздел Тема Автор DL S | L
Мультфильмы (48-60 fps) [ 3 GB ] Белка и Стрелка: Лунные [2013 Россия мультфильм BDRip-AVC 60fps Оригинал] от R.G. HD-Films Ressident Скачать
1 | 0
Иностранные мультфильмы [ 1.37 GB ] Белка и Стрелка: Лунные [2013 мультфильм WEB-DLRip Оригинал] кэп Скачать
1 | 0
Иностранные мультфильмы [ 745 MB ] Белка и Стрелка: Лунные [2013 Россия мультфильм HDRip-AVC] dexter lex Скачать
1 | 0
Наши Мультфильмы (DVD) [ 4.34 GB ] Белка и Стрелка: Лунные [2014 мультфильм DVD5] R5 voovaz Скачать
1 | 0

28-11-2019 20:33  

Отключить вcю реклaмy на сайте

    Дорогой пользователь! Огромная просьба, поблагодарите релизера, оцените раздачу и оставьте свои комментарий, если Вы скачали Белка и Стрелка: Лунные приключения через торрент бесплатно!
    Комментировать посты могут только пользователи прошедшие не сложную регистрацию
    Показать сообщения:    

    Белка и Стрелка: Лунные приключения через торрент
    Скачать бесплатно Белка и Стрелка: Лунные приключения
    Белка и Стрелка: Лунные приключения скачать торрент
    Белка и Стрелка: Лунные приключения смотреть онлайн
    Cкачать фильм Белка и Стрелка: Лунные приключения бесплатно
    Белка и Стрелка: Лунные приключения скачать торрент в хорошем качестве
    Белка и Стрелка: Лунные приключения смотреть онлайн бесплатно в хорошем качестве


    Вы не можете начинать темы
    Вы не можете отвечать на сообщения
    Вы не можете редактировать свои сообщения
    Вы не можете удалять свои сообщения
    Вы не можете голосовать в опросах
    Вы не можете прикреплять файлы к сообщениям
    Вы можете скачивать файлы