1 сезон

1 сезон

iTunes

1

КиноПоиск HD

Кинопоиск HD

iTunes

13

1 сезон

RePack

30

Новинка

ВАЖНО

ИГРА 18+

pack

RePack

MK11
pack

Легкие деньги

RePack

jed

RePack

fifa19

RePack

RDR2

RePack

NEED FOR SPEED™ PAYBACK

4 сезон

9 сезон

Бесстыжие 9 сезон

Все сериалы

все сериалы на PB.wtf

RePack

FAR CRY 5
  
Magnet ссылка

Бабба Хо-Теп / Bubba Ho-Tep (Дон Коскарелли) [2002 г., ужасы, фэнтези, драма, комедия, детектив, HDRip-AVC, AVO, SUB] от R.G. PiratFilms pb.wtf

Бабба Хо-Теп через торрент pb.wtf

Размер: 2.18 GB | Добавлен: 7 лет назад | Торрент скачан:30 раз
Скачать  

29-03-2014 07:55 Бабба Хо-Теп Скачать торрент  

Бабба Хо-Теп / Bubba Ho-Tep
Год выпуска: 2002
Страна: США
Производство: Silver Sphere Corporation
Жанр: ужасы, фэнтези, драма, комедия, детектив
Продолжительность: 01:35:37
Перевод: Авторский
Субтитры: Russian, English

Режиссер: Дон Коскарелли
Продюссер: Дон Коскарелли, Джейсон Р. Сэвадж, Дак Коскарелли
Сценарий: Дон Коскарелли, Джо Р. Лэнсдэйл
Бюджет: $1 000 000
Премьера в мире: 9 июня 2002

IMDB 7.20 (34 566)


В ролях: Брюс Кэмпбелл, Осси Дэвис, Элла Джойс, Хейди Марноут, Боб Айви, Эдит Джеффресон, Ларри Пеннелл, Рэджи Бэннистер, Дэниэл Робак, Дэниэл Швайгер

Описание: Однажды Элвис Пресли решил уйти на покой и найдя себе двойника составил с ним контракт, по которому он мог вернуться в любое время на круги своя. Однако по глупой случайности его копия этого договора сгорела и ему не оставалось ничего другого, как начать вести жизнь своего бывшего подражателя. В результате несчастного случая он угодил в один из приютов штата Техас, где пробыл в коме целых 20 лет. Очнувшись уже дряхлым стариком он, понимая, что годы безвозвратно ушли, решает мирно уйти на покой. Однако и здесь покой ему только снится! Знакомство, с якобы еще живым президентом Джоном Кеннеди, которому повсеместно мерещатся новые заговоры с целью его повторного убийства, серия таинственных смертей, нарушившая размеренный ход жизни приюта «Заслуженный Покой» — все это снова возрождает уставшего и всеми забытого Элвиса Аарона Пресли к жизни и борьбе!



Качество: HDRip-AVC
Формат: MKV
Видео кодек: AVC
Аудио кодек: AC3
Видео: AVC, 1024x560 (16:9), 23.976 fps, 1 989 Kbps (0.135 bit/pixel)
Аудио#1: AC-3, 48.0 KHz, 6 ch, 448 Kbps, CBR (Russian-AVO.Сербин)
Аудио#2: AC-3, 48.0 KHz, 6 ch, 448 Kbps, CBR (Russian-AVO.Визгунов)
Аудио#3: AC-3, 48.0 KHz, 6 ch, 448 Kbps, CBR (English)
x264 [info]: frame I:914 Avg QP:15.85 size: 66775 PSNR Mean Y:48.22 U:52.01 V:53.02 Avg:49.16 Global:48.42
x264 [info]: frame P:24461 Avg QP:18.52 size: 23195 PSNR Mean Y:45.73 U:50.32 V:51.05 Avg:46.74 Global:46.03
x264 [info]: frame B:107392 Avg QP:20.54 size: 6960 PSNR Mean Y:44.58 U:50.28 V:51.10 Avg:45.74 Global:45.02
x264 [info]: consecutive B-frames: 1.6% 1.5% 3.8% 12.0% 15.4% 29.0% 9.4% 18.1% 5.8% 1.7% 0.6% 0.4% 0.7%
x264 [info]: ref P L0: 41.5% 9.8% 19.5% 7.8% 6.7% 4.8% 4.5% 2.5% 2.6% 0.3% 0.0%
x264 [info]: ref B L0: 66.6% 14.2% 7.7% 4.1% 3.0% 2.6% 1.4% 0.4%
x264 [info]: ref B L1: 89.9% 10.1%
Формат : Matroska
Версия формата : Version 4 / Version 2
Размер файла : 2,18 Гбайт
Продолжительность : 1 ч. 35 м.
Общий поток : 3265 Кбит/сек
Название фильма : Bubba Ho-tep (2002) HDRip-AVC от R.G. PiratFilms
Дата кодирования : UTC 2014-03-28 11:03:06
Программа кодирования : mkvmerge v6.8.0 ('Theme for Great Cities') 32bit built on Mar 2 2014 21:27:07
Библиотека кодирования : libebml v1.3.0 + libmatroska v1.4.1

Видео
Идентификатор : 1
Формат : AVC
Формат/Информация : Advanced Video Codec
Профиль формата : High@L4.1
Параметр CABAC формата : Да
Параметр ReFrames формата : 9 кадров
Идентификатор кодека : V_MPEG4/ISO/AVC
Продолжительность : 1 ч. 35 м.
Битрейт : 1856 Кбит/сек
Номинальный битрейт : 1989 Кбит/сек
Ширина : 1024 пикселя
Высота : 560 пикселей
Соотношение сторон : 1,85:1
Режим частоты кадров : Постоянный
Частота кадров : 23,976 кадра/сек
Цветовое пространство : YUV
Субдискретизация насыщенности : 4:2:0
Битовая глубина : 8 бит
Тип развёртки : Прогрессивная
Бит/(Пиксели*Кадры) : 0.135
Размер потока : 1,24 Гбайт (57%)
Заголовок : Rip ot kep
Библиотека кодирования : x264 core 138 r2358 9e941d1
Настройки программы : cabac=1 / ref=9 / deblock=1:-3:-3 / analyse=0x3:0x133 / me=umh /
subme=9 / psy=1 / psy_rd=1.00:0.00 / mixed_ref=1 / me_range=32 / chroma_me=1 / trellis=2 /
8x8dct=1 / cqm=0 / deadzone=21,11 / fast_pskip=0 / chroma_qp_offset=-2 / threads=2 /
lookahead_threads=1 / sliced_threads=0 / nr=0 / decimate=1 / interlaced=0 / bluray_compat=0 /
constrained_intra=0 / bframes=12 / b_pyramid=2 / b_adapt=2 / b_bias=0 / direct=3 / weightb=1 /
open_gop=0 / weightp=2 / keyint=240 / keyint_min=23 / scenecut=40 / intra_refresh=0 /
rc_lookahead=60 / rc=2pass / mbtree=1 / bitrate=1989 / ratetol=1.0 / qcomp=0.60 / qpmin=10 /
qpmax=51 / qpstep=4 / cplxblur=20.0 / qblur=0.5 / ip_ratio=1.40 / aq=1:1.00
Язык : English
Default : Да
Forced : Нет

Аудио #1
Идентификатор : 2
Формат : AC-3
Формат/Информация : Audio Coding 3
Расширение режима : CM (complete main)
Параметр Endianness формата : Big
Идентификатор кодека : A_AC3
Продолжительность : 1 ч. 35 м.
Вид битрейта : Постоянный
Битрейт : 448 Кбит/сек
Каналы : 6 каналов
Расположение каналов : Front: L C R, Side: L R, LFE
Частота : 48,0 КГц
Битовая глубина : 16 бит
Метод сжатия : С потерями
Размер потока : 306 Мбайт (14%)
Заголовок : AVO.Сербин
Язык : Russian
Default : Да
Forced : Нет

Аудио #2
Идентификатор : 3
Формат : AC-3
Формат/Информация : Audio Coding 3
Расширение режима : CM (complete main)
Параметр Endianness формата : Big
Идентификатор кодека : A_AC3
Продолжительность : 1 ч. 35 м.
Вид битрейта : Постоянный
Битрейт : 448 Кбит/сек
Каналы : 6 каналов
Расположение каналов : Front: L C R, Side: L R, LFE
Частота : 48,0 КГц
Битовая глубина : 16 бит
Метод сжатия : С потерями
Размер потока : 306 Мбайт (14%)
Заголовок : AVO.Визгунов
Язык : Russian
Default : Нет
Forced : Нет

Аудио #3
Идентификатор : 4
Формат : AC-3
Формат/Информация : Audio Coding 3
Расширение режима : CM (complete main)
Параметр Endianness формата : Big
Идентификатор кодека : A_AC3
Продолжительность : 1 ч. 35 м.
Вид битрейта : Постоянный
Битрейт : 448 Кбит/сек
Каналы : 6 каналов
Расположение каналов : Front: L C R, Side: L R, LFE
Частота : 48,0 КГц
Битовая глубина : 16 бит
Метод сжатия : С потерями
Размер потока : 306 Мбайт (14%)
Заголовок : Original
Язык : English
Default : Нет
Forced : Нет

Текст #1
Идентификатор : 5
Формат : UTF-8
Идентификатор кодека : S_TEXT/UTF8
Идентификатор кодека/Информация : UTF-8 Plain Text
Заголовок : mks
Язык : Russian
Default : Да
Forced : Нет

Текст #2
Идентификатор : 6
Формат : UTF-8
Идентификатор кодека : S_TEXT/UTF8
Идентификатор кодека/Информация : UTF-8 Plain Text
Заголовок : mks
Язык : English
Default : Нет
Forced : Нет

Сэмпл / Трейлер pb.wtf



Скачать Бабба Хо-Теп через торрент http://i3.imageban.ru/out/2014/03/29/bdd44694a3d7fe605f2719e0bef742f9.png Скачать фильм Бабба Хо-Теп через торрент бесплантно в хорошем качестве Описание: Однажды Элвис Пресли решил уйти на покой и найдя себе двойника составил с ним контракт, по которому он мог вернуться в любое ... 8.8 10 4
× Info от релизера! Бабба Хо-Теп / Bubba Ho-Tep
Info! Золотая раздача, скачанное не засчитывается.
Торрент: Зарегистрирован [2014-03-29 07:55] · скачан: 30 раз
Статус: √ проверено
Размер: 2.18 GB
Как cкачать? Как скачать Бабба Хо-Теп через торрент | UTorrent

28-11-2019 20:33  

Отключить всю рекламу на сайте

    Дорогой пользователь! Огромная просьба, поблагодарите релизера, оцените раздачу и оставьте свои комментарий, если Вы скачали Бабба Хо-Теп через торрент бесплатно! Внесите свою лепту в развитие PiratBit!
    Комментировать посты могут только пользователи прошедшие не сложную регистрацию
    Показать сообщения:    

    Бабба Хо-Теп через торрент
    Скачать бесплатно Бабба Хо-Теп
    Бабба Хо-Теп скачать торрент
    Бабба Хо-Теп смотреть онлайн
    Cкачать фильм Бабба Хо-Теп бесплатно
    Бабба Хо-Теп скачать торрент в хорошем качестве
    Бабба Хо-Теп смотреть онлайн бесплатно в хорошем качестве


    Вы не можете начинать темы
    Вы не можете отвечать на сообщения
    Вы не можете редактировать свои сообщения
    Вы не можете удалять свои сообщения
    Вы не можете голосовать в опросах
    Вы не можете прикреплять файлы к сообщениям
    Вы можете скачивать файлы