Ссылка на приватное зеркало всего за 1$. Внимание количество ограничено!!!

iTunes

iTunes

iTunes

1

iTunes

iTunes

iTunes

WEBRip

iTunes

30
pack

$ от Little Big

ВАЖНО

!!Акция!!

Alien_RageХит недели

RePack

Resident Evil 21

ИГРА 18+

pack

RePack

jed

!!Акция!!

Alien_Rage

RePack

fifa19

RePack

Assassins Creed: Odyssey

RePack

NEED FOR SPEED™ PAYBACK

4 сезон

9 сезон

Бесстыжие 9 сезон

Все сериалы

все сериалы на PB.wtf

RePack

FAR CRY 5
  

72 метра [Extended Cut] (Владимир Хотиненко) [2004, Россия, драма, боевик, триллер, DVDRip] pb.wtf

72 метра через торрент pb.wtf

Размер: 1.46 GB | Добавлен: 6 лет 4 мес. назад | Торрент скачан:379 раз
Скачать  

29-03-2014 09:39 72 метра Скачать торрент  

72 метра
Год выпуска: 2004
Страна: Россия
Жанр: Боевик, триллер, драма
Продолжительность: 01:57:08
Перевод: Оригинал
Субтитры: Нет
Режиссер: Владимир Хотиненко
В ролях: Сергей Маковецкий, Марат Башаров, Андрей Краско, Дмитрий Ульянов, Чулпан Хаматова, Станислав Никольский, Сергей Гармаш, Владислав Галкин, Игорь Ливанов, Артем Михалков

Описание:

Рассказ «72 метра», повествующий о гибели подводной лодки, был написан Александром Покровским задолго до того, как произошла трагедия «Курска». Это не пророчество и не совпадение, а, к сожалению, логика вещей. Самые суперсовременные самолеты падали и будут время от времени падать. Самые надежные корабли и подводные лодки тонули и, увы, еще будут тонуть. Но речь не об этом… Бывает так, что в критической ситуации люди, считашиеся слабыми, становятся сильными, а те, кто казался твёрдыми, как скала, смертельно слабеют. Но все вместе они — герои. Эта история не о том, что надежда умирает последней, а о том, что она не умирает никогда…


Дата мировой премьеры: 2 сентября 2005
Дата премьеры в России: 12 февраля 2004, «Гемини Киномир»
Качество видео: DVDRip
Формат видео: AVI
Видеокодек: Xvid
Аудиокодек: AC3
Видео: MPEG4, XviD, 720x384 (1.875), 25.000 fps, 1 329 Kbps (0.192 bit/pixel)
Аудио: AC-3, 48.0 KHz, 6 ch, 448 Kbps, CBR

General
Complete name : D:Video72_metra_extended.avi
Format : AVI
Format/Info : Audio Video Interleave
File size : 1.46 GiB
Duration : 1h 57mn
Overall bit rate : 1 783 Kbps
Writing application : VirtualDubMod 1.5.10.2 (build 2540/release)
Writing library : VirtualDubMod build 2540/release

Video
ID : 0
Format : MPEG-4 Visual
Format profile : Advanced Simple@L5
Format settings, BVOP : 1
Format settings, QPel : No
Format settings, GMC : No warppoints
Format settings, Matrix : Default (MPEG)
Codec ID : XVID
Codec ID/Hint : XviD
Duration : 1h 57mn
Bit rate : 1 329 Kbps
Width : 720 pixels
Height : 384 pixels
Display aspect ratio : 1.85:1
Frame rate : 25.000 fps
Color space : YUV
Chroma subsampling : 4:2:0
Bit depth : 8 bits
Scan type : Progressive
Compression mode : Lossy
Bits/(Pixel*Frame) : 0.192
Stream size : 1.09 GiB (75%)
Writing library : XviD 1.2.1 (UTC 2008-12-04)

Audio
ID : 1
Format : AC-3
Format/Info : Audio Coding 3
Mode extension : CM (complete main)
Format settings, Endianness : Big
Codec ID : 2000
Duration : 1h 56mn
Bit rate mode : Constant
Bit rate : 448 Kbps
Channel(s) : 6 channels
Channel positions : Front: L C R, Side: L R, LFE
Sampling rate : 48.0 KHz
Bit depth : 16 bits
Compression mode : Lossy
Stream size : 373 MiB (25%)
Alignment : Split accross interleaves
Interleave, duration : 40 ms (1.01 video frame)
Interleave, preload duration : 500 ms

pb.wtf



Скачать 72 метра через торрент http://i4.imageban.ru/out/2012/07/28/3987449d5f35a3102ce1ffa90d3bd191.jpg Скачать фильм 72 метра [Extended Cut] через торрент бесплантно в хорошем качестве Описание: Рассказ «72 метра», повествующий о гибели подводной лодки, был написан Александром Покровским задолго до того, как произошла ... 9.6 10 15
Info! Золотая раздача, скачанное не засчитывается.
Торрент: Зарегистрирован [2014-03-29 09:39] · скачан: 379 раз
Статус: √ проверено
Размер: 1.46 GB
Как cкачать? Как скачать 72 метра через торрент | qTorrent

% Раздел Тема Автор DL S | L
? Оформление раздач (Кино, Видео и ТВ) [ 6.89 GB ] Полный расколбас / Sausage Party [2016 Мультфильм для взрослых полнометражный BDRip 720p / 60 FPS ] 50000 Скачать
1 | 0
? Оформление раздач (Кино, Видео и ТВ) [ 8.26 GB ] Моана / Moana [2016 Мультфильм мюзикл полнометражный BDRip 720p / 60 FPS ] 50000 Скачать
1 | 0
T Фильмы (WEB-DL 720p, 1080p) [ 253 MB ] Харон / Caronte [2017 короткометражный WEB-DLRip 720p] MVO [DeeaFilm] Eng Sub serg7628 Скачать
3 | 0
Наши фильмы (HD, WEB-DL 720p, 1080p) [ 6.57 GB ] Метро [2012 BDRip 720p] [GER Transfer] - KORSAR kisa1980 Скачать
1 | 0
T Фильмы (WEB-DL 720p, 1080p) [ 300 MB ] Дикарь / Зверь / Fauve [2018 короткометражный WEB-DLRip 720p] MVO [GreenРай Studio] Fre Sub serg7628 Скачать
1 | 0
T Фильмы (мультфильмы) cо спонсором показа (Новинки AVI/MKV) [ 2.38 GB ] Сборник хэллоуинских короткометражных фильмов от MVB Films: Часть 2 / MVB Films Halloween Horror Stories Vol II [2018 WEB-DL 720p] MVO ["Синема УС"] bober100 Скачать
1 | 0
Короткометражные мультфильмы [ 213 MB ] Фаэтон – сын солнца [1972 Мультфильм короткометражка DVDRip] Скорпион1976 Скачать
1 | 0

28-11-2019 20:33  

Отключить всю рекламу на сайте

29-03-2014 10:22 72 метра Скачать торрент  

Фильм отличный Приятного просмотра)pb.wtf



25-07-2014 21:45 72 метра Скачать торрент  

Смотрю с удовольствиемpb.wtf



18-02-2015 14:21 72 метра Скачать торрент  

СПАСИБО за раздачу, пересмотрел ещё раз!!! Фильм настолько сегодня актуален!
pb.wtf



13-08-2016 02:21 72 метра Скачать торрент  

Большое спасибо! давно хотел пополнить свою фильмотеку правильным фильмом!pb.wtf



    Дорогой пользователь! Огромная просьба, поблагодарите релизера, оцените раздачу и оставьте свои комментарий, если Вы скачали 72 метра через торрент бесплатно! Внесите свою лепту в развитие PiratBit!
    Комментировать посты могут только пользователи прошедшие не сложную регистрацию
    Показать сообщения:    

    72 метра через торрент
    Скачать бесплатно 72 метра
    72 метра скачать торрент
    72 метра смотреть онлайн
    Cкачать фильм 72 метра бесплатно
    72 метра скачать торрент в хорошем качестве
    72 метра смотреть онлайн бесплатно в хорошем качестве


    Вы не можете начинать темы
    Вы не можете отвечать на сообщения
    Вы не можете редактировать свои сообщения
    Вы не можете удалять свои сообщения
    Вы не можете голосовать в опросах
    Вы не можете прикреплять файлы к сообщениям
    Вы можете скачивать файлы