Присоединяйтесь к нам в Telegram!, здесь всегда актуальный адрес сайта, оперативная поддержка и многое другое!!

>

5.9

iTunes

7.4

iTunes

9.4

1 сезон

1

7.4

2 сезон

7.2

iTunes

7.3

1 сезон

13

6.1

iTunes

8.3

GOG

30

ULTIMATE

pack

9.9

Лицензия

ВАЖНО

ИГРА 18+

pack

7.3

RePack

MK11

7.7

RePack

jed

7.8

RePack

fifa19

8.5

RePack

RDR2

RePack

NEED FOR SPEED™ PAYBACK

5 сезон

9 сезон

Бесстыжие 9 сезон

Все сериалы

все сериалы на PB.wtf

RePack

FAR CRY 5

Anonymous, доброе утро, мы катастрофически не успеваем собрать деньги на оплату серверов, помогите нам пожалуйста 5,10,15р., для нас важна любая помощь . В качестве благодарности мы отключим Вам всю рекламу на сайте (укажите свой ник в строку Ваше имя)!

×
  
Magnet ссылка

Видеоклипы от CAMOUFLAGE / Camouflage - Video Clips [1991 г., Synthpop, DVDRip] pb.wtf

Видеоклипы от CAMOUFLAGE через торрент pb.wtf

Размер: 1.99 GB | Добавлен: 7 лет 8 мес. назад | Торрент скачан:45 раз
Смотреть онлайн Видеоклипы от CAMOUFLAGE | Скачать    Ребята, помогите собрать деньги на оплату серверов!!!

29-03-2014 11:15 Видеоклипы от CAMOUFLAGE Скачать торрент  

Видеоклипы от CAMOUFLAGE / Camouflage - Video ClipsГод выпуска: 1991
Страна: Германия
Жанр: Synthpop
Продолжительность: 00:47:46
Перевод: Оригинал

В ролях: Marcus Meyn - Vocals
Heiko Maile - Keyboards, Synthesizer & Backing Vocals
Oliver Kreyssig - Vocals, Keyboards & Electronic Percussion
Jochen Schmalbach - Drums
Volker Hinkel - Guitars & Backing Vocals

Описание: Ранние видеоклипы группы
01. The Great Commandment
02. Strangers’ Thoughts
03. Neighbours
04. Love Is A Shield
05. One Fine Day
06. Heaven (I Want You)
07. This Day
08. Handsome
09. Suspicious Love
10. Bad News
11. X-Ray
12. Thief
Качество: DVDRip
Формат: AVI
Видео кодек: XviD
Аудио кодек: AC3
Видео: Xvid 720x544, 25.00fps, 5 772 Kbps
Аудио: Dolby AC3, 48000Hz, stereo, 192kbps
Релиз от: lug30





General
Complete name : I:1 26 03 20142 rip lug30.avi
Format : AVI
Format/Info : Audio Video Interleave
Format profile : OpenDML
File size : 1.99 GiB
Duration : 47mn 46s
Overall bit rate : 5 973 Kbps
Writing application : VirtualDubMod 1.5.4.1 (build 2178/release)
Writing library : VirtualDubMod build 2178/release

Video
ID : 0
Format : MPEG-4 Visual
Format profile : Advanced Simple@L5
Format settings, BVOP : No
Format settings, QPel : No
Format settings, GMC : No warppoints
Format settings, Matrix : Custom
Codec ID : XVID
Codec ID/Hint : XviD
Duration : 47mn 46s
Bit rate : 5 772 Kbps
Width : 720 pixels
Height : 544 pixels
Display aspect ratio : 4:3
Frame rate : 25.000 fps
Color space : YUV
Chroma subsampling : 4:2:0
Bit depth : 8 bits
Scan type : Progressive
Compression mode : Lossy
Bits/(Pixel*Frame) : 0.589
Stream size : 1.93 GiB (97%)
Writing library : XviD 73

Audio
ID : 1
Format : AC-3
Format/Info : Audio Coding 3
Mode extension : CM (complete main)
Codec ID : 2000
Duration : 47mn 45s
Bit rate mode : Constant
Bit rate : 192 Kbps
Channel(s) : 2 channels
Channel positions : Front: L R
Sampling rate : 48.0 KHz
Bit depth : 16 bits
Compression mode : Lossy
Stream size : 65.6 MiB (3%)
Alignment : Split accross interleaves
Interleave, duration : 96 ms (2.40 video frames)
Interleave, preload duration : 96 ms
Language : Russian

pb.wtf



Скачать Видеоклипы от CAMOUFLAGE через торрент https://pic1.kartinco.top/images/61/9gkmw.jpg Скачать, смотреть онлайн Видеоклипы от CAMOUFLAGE бесплантно в хорошем качестве Описание: Ранние видеоклипы группы The Great Commandment Strangers’ Thoughts Neighbours Love Is A Shield One Fine ... 9.5 10 10
Info! Золотая раздача, скачанное не засчитывается.
Торрент: Зарегистрирован [2014-03-29 11:15] · скачан: 45 раз
Статус: √ проверено
Размер: 1.99 GB
Как cкачать? Как скачать Видеоклипы от CAMOUFLAGE через торрент | UTorrent

28-11-2019 20:33  

Отключить всю рекламу на сайте

    Дорогой пользователь! Огромная просьба, поблагодарите релизера, оцените раздачу и оставьте свои комментарий, если Вы скачали Видеоклипы от CAMOUFLAGE через торрент бесплатно!
    Комментировать посты могут только пользователи прошедшие не сложную регистрацию
    Показать сообщения:    

    Видеоклипы от CAMOUFLAGE через торрент
    Скачать бесплатно Видеоклипы от CAMOUFLAGE
    Видеоклипы от CAMOUFLAGE скачать торрент
    Видеоклипы от CAMOUFLAGE смотреть онлайн
    Cкачать фильм Видеоклипы от CAMOUFLAGE бесплатно
    Видеоклипы от CAMOUFLAGE скачать торрент в хорошем качестве
    Видеоклипы от CAMOUFLAGE смотреть онлайн бесплатно в хорошем качестве


    Вы не можете начинать темы
    Вы не можете отвечать на сообщения
    Вы не можете редактировать свои сообщения
    Вы не можете удалять свои сообщения
    Вы не можете голосовать в опросах
    Вы не можете прикреплять файлы к сообщениям
    Вы можете скачивать файлы