Ссылка на приватное зеркало нашего сайта всего за 1$. Внимание количество ограничено!!!

2 сезон

iTunes

1 сезон

1

iTunes

iTunes

iTunes

1 сезон

RePack

30

ИГРА 18+

pack

ВАЖНО

!!Акция!!

Alien_RageХит недели

RePack

MK11
pack

Забери бонус

RePack

jed

!!Акция!!

Alien_Rage

RePack

fifa19

RePack

Assassins Creed: Odyssey

RePack

NEED FOR SPEED™ PAYBACK

4 сезон

9 сезон

Бесстыжие 9 сезон

Все сериалы

все сериалы на PB.wtf

RePack

FAR CRY 5
  

Холодное сердце / Frozen (Крис Бак, Дженнифер Ли) [2013 г., мультфильм, мюзикл, фэнтези, комедия, мелодрама, приключения, семейный, BDRip, Дубляж, Лицензия] pb.wtf

Холодное сердце через торрент pb.wtf

Раздают: 1 [ 0 KB/s ]
Размер: 2.06 GB | Добавлен: 6 лет 6 мес. назад | Торрент скачан:1649 раз
Скачать  

29-03-2014 15:54 Холодное сердце Скачать торрент  

Холодное сердце / Frozen
Год выпуска: 2013
Страна: США / Walt Disney Animation Studios, Walt Disney Pictures
Жанр: мультфильм, мюзикл, фэнтези, комедия, мелодрама, приключения, семейный
Продолжительность: 01:42:13
Перевод: Дубляж (Лицензия)

Режиссер: Крис Бак, Дженнифер Ли



В ролях: Кристен Белл, Идина Мензел, Джонатан Грофф, Джош Гад, Сантино Фонтана, Алан Тьюдик, Киаран Хайндс, Крис Уильямс, Стивен Дж. Андерсон, Майа Уилсон

Описание: Когда древнее предсказание сбывается и королевство погружается в объятия вечной зимы, трое бесстрашных героев — принцесса Анна, отважный Кристофф и его верный олень Свен — отправляются в горы, чтобы найти сестру Анны, Эльзу, которая может снять со страны леденящее заклятие. По пути их ждет множество увлекательных сюрпризов и захватывающих приключений: встреча с мистическими троллями, знакомство с очаровательным снеговиком по имени Олаф, горные вершины покруче Эвереста и магия в каждой снежинке. Анне и Кристоффу предстоит сплотиться и противостоять могучей стихии, чтобы спасти королевство и тех, кто им дорог…

Качество: BDRip (Рип с BD-Remux 1080p)
Формат: AVI
Видео кодек: XviD
Аудио кодек: AC3
Видео: 720x320 (2.25:1), 23.976 fps, XviD build 50 ~2424 kbps avg, 0.44 bit/pixel
Аудио: 48 kHz, AC3 Dolby Digital, 3/2 (L,C,R,l,r) + LFE ch, ~448 kbps


Общее
Полное имя : H:киноFrozen.2013.BDRip.2100MB.avi
Формат : AVI
Формат/Информация : Audio Video Interleave
Профиль формата : OpenDML
Размер файла : 2,06 Гбайт
Продолжительность : 1 ч. 42 м.
Общий поток : 2880 Кбит/сек
Название фильма : Frozen.2013.BDRip.avi
Режиссёр : Rip by oc900c
Программа кодирования : VirtualDubMod 1.5.10.3 | www.virtualdub-fr.org || (build 2550/release)

Видео
Идентификатор : 0
Формат : MPEG-4 Visual
Профиль формата : Advanced Simple@L5
Параметр BVOP формата : 2
Параметр QPel формата : Нет
Параметр GMC формата : Без точки перехода
Параметр матрицы формата : Default (H.263)
Идентификатор кодека : XVID
Идентификатор кодека/Подсказка : XviD
Продолжительность : 1 ч. 42 м.
Битрейт : 2419 Кбит/сек
Ширина : 720 пикселей
Высота : 320 пикселей
Соотношение сторон : 2,25:1
Частота кадров : 23,976 кадра/сек
Цветовое пространство : YUV
Субдискретизация насыщенности : 4:2:0
Битовая глубина : 8 бит
Тип развёртки : Прогрессивная
Метод сжатия : С потерями
Бит/(Пиксели*Кадры) : 0.438
Размер потока : 1,73 Гбайт (84%)
Библиотека кодирования : XviD 1.2.1 (UTC 2008-12-04)

Аудио
Идентификатор : 1
Формат : AC-3
Формат/Информация : Audio Coding 3
Расширение режима : CM (complete main)
Параметр Endianness формата : Big
Идентификатор кодека : 2000
Продолжительность : 1 ч. 42 м.
Вид битрейта : Постоянный
Битрейт : 448 Кбит/сек
Каналы : 6 каналов
Расположение каналов : Front: L C R, Side: L R, LFE
Частота : 48,0 КГц
Битовая глубина : 16 бит
Метод сжатия : С потерями
Размер потока : 328 Мбайт (16%)
Выравнивание : Разделение по промежуткам
Продолжительность промежутка : 42 мс. (1,00 видеокадр)
Время предзагрузки промежутка : 500 мс.

pb.wtf



Скачать Холодное сердце через торрент http://pic.kartinco.top/images/6/845c3.jpg Скачать фильм Холодное сердце через торрент бесплантно в хорошем качестве Описание: Когда древнее предсказание сбывается и королевство погружается в объятия вечной зимы, трое бесстрашных героев — принцесса Анна, ... 9.7 10 35
Info! Золотая раздача, скачанное не засчитывается.
Торрент: Зарегистрирован [2014-03-29 15:54] · скачан: 1 649 раз
Статус: √ проверено
Размер: 2.06 GB
Как cкачать? Как скачать Холодное сердце через торрент | qTorrent

% Раздел Тема Автор DL S | L
3D Мультфильмы [ 6.44 GB ] Холодное сердце 2 в 3D / Frozen II in 3D [2019 мультфильм мюзикл BDRip 1080p ] Анаглиф от R.G. HD-Films slaventi-69 Скачать
1 | 0
3D Мультфильмы [ 9.14 GB ] Холодное сердце 2 в 3Д / Frozen II 3D [2019 мультфильм мюзикл BDRip 1080p] OverUnder / Вертикальная стереопара () serega768 Скачать
1 | 0
Зарубежные Мультфильмы (BDRip 1080p, 720p, Blu-ray, BD-Remux) [ 35.33 GB ] Холодное сердце 2 / Frozen II [2019 Мультфильм мюзикл BD Remux 1080p ] bober100 Скачать
2 | 0
3D Мультфильмы [ 6.97 GB ] Холодное сердце 2 3Д / Frozen II 3D [2019 Мультфильм мюзикл BDRip 1080p ] DUB bober100 Скачать
2 | 0
Зарубежные Мультфильмы (BDRip 1080p, 720p, Blu-ray, BD-Remux) [ 19.88 GB ] Холодное сердце 2 / Frozen II [2019 Мультфильм мюзикл BD Remux 1080p] bober100 Скачать
2 | 0
Зарубежные Мультфильмы (BDRip 1080p, 720p, Blu-ray, BD-Remux) [ 6.71 GB ] Холодное сердце 2 / Frozen II [2019 Мультфильм мюзикл BDRip 1080p] bober100 Скачать
8 | 0
Ultra HD (UHD: 2K, 4K, 8K) [ 12.68 GB ] Холодное сердце 2 / Frozen II [2019 Мультфильм мюзикл UHD BDRip 2160p ] 2xDUB [ Онлайн кинотеатр] bober100 Скачать
1 | 0

28-11-2019 20:33  

Отключить всю рекламу на сайте

    Дорогой пользователь! Огромная просьба, поблагодарите релизера, оцените раздачу и оставьте свои комментарий, если Вы скачали Холодное сердце через торрент бесплатно! Внесите свою лепту в развитие PiratBit!
    Комментировать посты могут только пользователи прошедшие не сложную регистрацию
    Показать сообщения:    

    Холодное сердце через торрент
    Скачать бесплатно Холодное сердце
    Холодное сердце скачать торрент
    Холодное сердце смотреть онлайн
    Cкачать фильм Холодное сердце бесплатно
    Холодное сердце скачать торрент в хорошем качестве
    Холодное сердце смотреть онлайн бесплатно в хорошем качестве


    Вы не можете начинать темы
    Вы не можете отвечать на сообщения
    Вы не можете редактировать свои сообщения
    Вы не можете удалять свои сообщения
    Вы не можете голосовать в опросах
    Вы не можете прикреплять файлы к сообщениям
    Вы можете скачивать файлы