Ссылка на приватное зеркало нашего сайта всего за 1$. Внимание количество ограничено!!!

2 сезон

iTunes

1 сезон

1

iTunes

iTunes

iTunes

1 сезон

RePack

30

ИГРА 18+

pack

ВАЖНО

!!Акция!!

Alien_RageХит недели

RePack

MK11
pack

Забери бонус

RePack

jed

!!Акция!!

Alien_Rage

RePack

fifa19

RePack

Assassins Creed: Odyssey

RePack

NEED FOR SPEED™ PAYBACK

4 сезон

9 сезон

Бесстыжие 9 сезон

Все сериалы

все сериалы на PB.wtf

RePack

FAR CRY 5
  

Скуби-Ду! Тайна рестлмании / Scooby-Doo! WrestleMania Mystery (Майкл Райан) [2014, Мультфильм, HDRip] pb.wtf

Скуби-Ду! Тайна рестлмании через торрент pb.wtf

Размер: 1.37 GB | Добавлен: 6 лет 6 мес. назад | Торрент скачан:807 раз
Скачать  

29-03-2014 23:22 Скуби-Ду! Тайна рестлмании Скачать торрент  

Скуби-Ду! Тайна рестлмании / Scooby-Doo! WrestleMania Mystery
Информация о фильме
Год выпуска: 2014
Страна: США
Жанр: Мультфильм
Режиссер: Майкл Райан
Перевод: Профессиональный (многоголосый)

Продолжительность: 01:23:41
В ролях: Мэттью Лиллард, Джон Ди Маджио, Грэй ДеЛисл, Фрэнк Уэлкер, Пол Левески, Трэвис Уиллингэм, Глен Джейкобс, Майк Мизанин, Минди Кон, Винс МакМахон, Коллин О’Шонесси, Джейби Бланк

Описание фильма:
История о путешествиях главных героев в логово рестлмании. Что же такое Рестмалния - это театральные бои на ринге, когда бойцы изображают драку, хотя на самом деле - это лишь одна большая постановка, в этих схватках почти нет ничего опасного. Будут ли они сами участвовать в постановочных боях или же все будет намного серьезнее?
Информация о файле:
Качество: HDRip
Формат: AVI
Видео кодек: XviD
Аудио кодек: AC3
Видео: 720x400 (16:9), 1884 Кбит/сек, 23,976 fps
Аудио №1: AC3, 192 Кбит/сек, 2 каналов, 48 КГц
Аудио №2: AC3, 256 Кбит/сек, 2 каналов, 48 КГц


Код:

Формат                                   : AVI
Формат/Информация                        : Audio Video Interleave
Размер файла                             : 1,37 Гбайт
Продолжительность                        : 1 ч. 23 м.
Общий поток                              : 2346 Кбит/сек
Программа кодирования                    : VirtualDubMod 1.5.10.3 | www.virtualdub-fr.org || (build 2550/release)
Библиотека кодирования                   : VirtualDubMod build 2550/release

Видео
Идентификатор                            : 0
Формат                                   : MPEG-4 Visual
Профиль формата                          : Advanced Simple@L5
Параметр BVOP формата                    : 2
Параметр QPel формата                    : Нет
Параметр GMC формата                     : Без точки перехода
Параметр матрицы формата                 : Default (H.263)
Режим смешивания                         : Сжатый битовый поток
Идентификатор кодека                     : XVID
Идентификатор кодека/Подсказка           : XviD
Продолжительность                        : 1 ч. 23 м.
Битрейт                                  : 1884 Кбит/сек
Ширина                                   : 720 пикселей
Высота                                   : 400 пикселей
Соотношение сторон                       : 16:9
Частота кадров                           : 23,976 кадра/сек
Цветовое пространство                    : YUV
Субдискретизация насыщенности            : 4:2:0
Битовая глубина                          : 8 бит
Тип развёртки                            : Прогрессивная
Метод сжатия                             : С потерями
Бит/(Пиксели*Кадры)                      : 0.273
Размер потока                            : 1,10 Гбайт (80%)
Библиотека кодирования                   : XviD 64

Аудио #1
Идентификатор                            : 1
Формат                                   : AC-3
Формат/Информация                        : Audio Coding 3
Расширение режима                        : CM (complete main)
Параметр Endianness формата              : Big
Идентификатор кодека                     : 2000
Продолжительность                        : 1 ч. 23 м.
Вид битрейта                             : Постоянный
Битрейт                                  : 192 Кбит/сек
Каналы                                   : 2 канала
Расположение каналов                     : Front: L R
Частота                                  : 48,0 КГц
Битовая глубина                          : 16 бит
Метод сжатия                             : С потерями
Размер потока                            : 115 Мбайт (8%)
Выравнивание                             : Разделение по промежуткам
Продолжительность промежутка             : 42  мс. (1,00 видеокадр)
Время предзагрузки промежутка            : 500  мс.

Аудио #2
Идентификатор                            : 2
Формат                                   : AC-3
Формат/Информация                        : Audio Coding 3
Расширение режима                        : CM (complete main)
Параметр Endianness формата              : Big
Идентификатор кодека                     : 2000
Продолжительность                        : 1 ч. 23 м.
Вид битрейта                             : Постоянный
Битрейт                                  : 256 Кбит/сек
Каналы                                   : 2 канала
Расположение каналов                     : Front: L R
Частота                                  : 48,0 КГц
Битовая глубина                          : 16 бит
Метод сжатия                             : С потерями
Размер потока                            : 153 Мбайт (11%)
Выравнивание                             : Разделение по промежуткам
Продолжительность промежутка             : 42  мс. (1,00 видеокадр)
Время предзагрузки промежутка            : 500  мс.


скриншот   скриншот   скриншот   скриншот   скриншот  
pb.wtf



Скачать Скуби-Ду! Тайна рестлмании через торрент http://pic.kartinco.top/images/6/l1zjp.jpg Скачать фильм Скуби-Ду! Тайна рестлмании через торрент бесплантно в хорошем качестве Описание фильма:История о путешествиях главных героев в логово рестлмании. Что же такое Рестмалния - это театральные бои на ринге, когда ... 9.8 10 22
Info! Золотая раздача, скачанное не засчитывается.
Торрент: Зарегистрирован [2014-03-29 23:22] · скачан: 807 раз
Статус: √ проверено
Размер: 1.37 GB
Как cкачать? Как скачать Скуби-Ду! Тайна рестлмании через торрент | qTorrent

% Раздел Тема Автор DL S | L
Иностранные мультфильмы [ 1.3 GB ] Скуби-Ду! Искусство борьбы / Scooby-Doo! WrestleMania Mystery [2014 г Мультфильм BDRip] Azazel Скачать
1 | 0

28-11-2019 20:33  

Отключить всю рекламу на сайте

    Дорогой пользователь! Огромная просьба, поблагодарите релизера, оцените раздачу и оставьте свои комментарий, если Вы скачали Скуби-Ду! Тайна рестлмании через торрент бесплатно! Внесите свою лепту в развитие PiratBit!
    Комментировать посты могут только пользователи прошедшие не сложную регистрацию
    Показать сообщения:    

    Скуби-Ду! Тайна рестлмании через торрент
    Скачать бесплатно Скуби-Ду! Тайна рестлмании
    Скуби-Ду! Тайна рестлмании скачать торрент
    Скуби-Ду! Тайна рестлмании смотреть онлайн
    Cкачать фильм Скуби-Ду! Тайна рестлмании бесплатно
    Скуби-Ду! Тайна рестлмании скачать торрент в хорошем качестве
    Скуби-Ду! Тайна рестлмании смотреть онлайн бесплатно в хорошем качестве


    Вы не можете начинать темы
    Вы не можете отвечать на сообщения
    Вы не можете редактировать свои сообщения
    Вы не можете удалять свои сообщения
    Вы не можете голосовать в опросах
    Вы не можете прикреплять файлы к сообщениям
    Вы можете скачивать файлы