Ссылка на приватное зеркало нашего сайта всего за 1$. Внимание количество ограничено!!!

2 сезон

iTunes

1 сезон

1

iTunes

iTunes

iTunes

1 сезон

RePack

30

ИГРА 18+

pack

ВАЖНО

!!Акция!!

Alien_RageХит недели

RePack

MK11
pack

Забери бонус

RePack

jed

!!Акция!!

Alien_Rage

RePack

fifa19

RePack

Assassins Creed: Odyssey

RePack

NEED FOR SPEED™ PAYBACK

4 сезон

9 сезон

Бесстыжие 9 сезон

Все сериалы

все сериалы на PB.wtf

RePack

FAR CRY 5
  

Если ты не со мной (1-2 серии из 2) (Игорь Мужжухин) [2014 г., Мелодрама, HDTVRip] pb.wtf

Если ты не со мной через торрент pb.wtf

Размер: 2.74 GB | Добавлен: 6 лет 6 мес. назад | Торрент скачан:167 раз
Скачать  

30-03-2014 09:57 Если ты не со мной Скачать торрент  

Если ты не со мной

Год выпуска: 2014
Страна: Россия
Выпущено: Кинокомпания "Русское"
Жанр: Мелодрама
Продолжительность: 2 x ~ 01:32:00
Язык: Русский

Режиссер: Игорь Мужжухин



В ролях: Сесиль Свердлова, Михаил Пшеничный, Татьяна Космачёва, Илья Алексеев, Владимир Коренев, Лариса Лужина, Екатерина Жемчужная, Алексей Нестеренко, Сергей Эрденко, Алеса Качер, Сергей Комаров (II), Ирина Пулина

Описание: Зарина — цыганка из табора, свободная и красивая. Сын самого барона без ума от Зарины и готов связать с ней свою судьбу. Но, вопреки правилам, цыганская девушка влюбляется в «чужака» — молодого врача из столицы Алексея. Избранник Зарины отвечает ей взаимностью и, улучив удобный момент, похищает героиню.. Влюбленным придется преодолеть немало препятствий на пути к счастью: подлость бывшей подруги из табора, преследования оскорбленного отказом бизнесмена и неприятие неравного брака родственниками.

Качество: HDTVRip
Формат: AVI
Видео кодек: XviD
Аудио кодек: AC3
Видео: XviD, ~ 1900 Кбит/с, 720x400, 25.000 fps, (Bits/Pixel): 0.264
Аудио: AC3, 2 ch, 192 Кбит/с, 48.0 KHz
General
Complete name : /home/sb753/files/Esli.ty.nesomnoj.2014.HDTVRip.Files-x/01.Esli.ty.nesomnoj.2014.HDTVRip.Files-x.avi
Format : AVI
Format/Info : Audio Video Interleave
File size : 1.37 GiB
Duration : 1h 33mn
Overall bit rate : 2 100 Kbps
Writing application : VirtualDubModRus 1.5.10.2 (build 2542/release)
Writing library : VirtualDubMod build 2542/release

Video
ID : 0
Format : MPEG-4 Visual
Format profile : Advanced Simple@L5
Format settings, BVOP : 2
Format settings, QPel : No
Format settings, GMC : No warppoints
Format settings, Matrix : Default (H.263)
Codec ID : XVID
Codec ID/Hint : XviD
Duration : 1h 33mn
Bit rate : 1 898 Kbps
Width : 720 pixels
Height : 400 pixels
Display aspect ratio : 16:9
Frame rate : 25.000 fps
Color space : YUV
Chroma subsampling : 4:2:0
Bit depth : 8 bits
Scan type : Progressive
Compression mode : Lossy
Bits/(Pixel*Frame) : 0.264
Stream size : 1.24 GiB (90%)
Writing library : XviD 1.2.1 (UTC 2008-12-04)

Audio
ID : 1
Format : AC-3
Format/Info : Audio Coding 3
Mode extension : CM (complete main)
Format settings, Endianness : Big
Codec ID : 2000
Duration : 1h 33mn
Bit rate mode : Constant
Bit rate : 192 Kbps
Channel(s) : 2 channels
Channel positions : Front: L R
Sampling rate : 48.0 KHz
Bit depth : 16 bits
Compression mode : Lossy
Stream size : 128 MiB (9%)
Alignment : Split accross interleaves
Interleave, duration : 40 ms (1.00 video frame)
Interleave, preload duration : 500 ms
pb.wtf



Скачать Если ты не со мной через торрент http://i2.imageban.ru/out/2014/03/30/3a79d5bc9a2599c506101d937ee42c40.png Скачать фильм Если ты не со мной через торрент бесплантно в хорошем качестве Описание: Зарина — цыганка из табора, свободная и красивая. Сын самого барона без ума от Зарины и готов связать с ней свою судьбу. Но, ... 10 10 4
× Info от релизера! Если ты не со мной
Торрент: Зарегистрирован [2014-03-30 09:57] · скачан: 167 раз
Статус: √ проверено
Размер: 2.74 GB
Как cкачать? Как скачать Если ты не со мной через торрент | qTorrent

28-11-2019 20:33  

Отключить всю рекламу на сайте

    Дорогой пользователь! Огромная просьба, поблагодарите релизера, оцените раздачу и оставьте свои комментарий, если Вы скачали Если ты не со мной через торрент бесплатно! Внесите свою лепту в развитие PiratBit!
    Комментировать посты могут только пользователи прошедшие не сложную регистрацию
    Показать сообщения:    

    Если ты не со мной через торрент
    Скачать бесплатно Если ты не со мной
    Если ты не со мной скачать торрент
    Если ты не со мной смотреть онлайн
    Cкачать фильм Если ты не со мной бесплатно
    Если ты не со мной скачать торрент в хорошем качестве
    Если ты не со мной смотреть онлайн бесплатно в хорошем качестве


    Вы не можете начинать темы
    Вы не можете отвечать на сообщения
    Вы не можете редактировать свои сообщения
    Вы не можете удалять свои сообщения
    Вы не можете голосовать в опросах
    Вы не можете прикреплять файлы к сообщениям
    Вы можете скачивать файлы