новый адрес
Мега распродажа FORZA HORIZON 4 ULTIMATE+ВСЕ DLC+ОНЛАЙН всего за 499р. 349 руб. (супер цена). Внимание количество ограничено!!!

iTunes

1+1

iTunes

мы

iTunes

1

iTunes

Чернобыль

iTunes

Ральф против интернета

Лицензия

ПШазам

Лицензия

Игра престолов

Лицензия

30
pack

ВАЖНО

!!Акция!!

Alien_RageХит недели

RePack

Resident Evil 21

ИГРА 18+

pack

RePack

Metro:Exodus

!!Акция!!

Alien_Rage

RePack

fifa19

RePack

Assassins Creed: Odyssey

RePack

NEED FOR SPEED™ PAYBACK

3 сезон

9 сезон

Бесстыжие 9 сезон

Все сериалы

все сериалы на PB.wtf

RePack

FAR CRY 5
Ребята, катастрофически не хватает 1900р. для оплаты серверов за Октябрь (всвязи с блокировками трафик упал в 3 раза), 1-2р., выручайте.
  

Вий [1-2 серия из 2] (Олег Степченко) [2014, фентези, триллер, приключения, WED-DL 1080p] [Телеверсия] pb.wtf

Вий через торрент pb.wtf

Размер: 4.51 GB | Добавлен: 5 лет 7 мес. назад | Торрент скачан:350 раз
Скачать  

30-03-2014 11:44 Вий Скачать торрент  

Вий

«Не бойся...»

  • Год выпуска: 2013
  • Страна: Россия, Украина, Германия, Великобритания, Чехия
  • Жанр: фэнтези, триллер, приключения

  • Продолжительность: 01:17:49+01:16:02
  • Перевод: Не требуется

  • Субтитры: Нет
  • Режиссер: Олег Степченко
  • В ролях:

    Джейсон Флеминг (Джонатан Грин), Андрей Смоляков (отец Паисий), Алексей Чадов (Петрусь), Агния Дитковските (Настуся), Юрий Цурило (Сотник), Ольга Зайцева (панночка), Александр Яковлев (Оверко), Игорь Жижикин (Дорош), Валерий Золотухин (Явтух), Нина Русланова (жена Явтуха), Виктор Бычков (Тарас), Иван Моховиков (бурсак Халява)
    • Описание:
      Начало XVIII века. Картограф Джонатан Грин совершает научное путешествие из Европы на Восток. Проследовав через Трансильванию и преодолев Карпатские горы, он попадает в затерянную среди непроходимых лесов деревушку. Только воля случая и густой туман могли занести его в это проклятое место. Народ, живущий здесь, не похож ни на один доселе виданный путешественником. Эти люди, оградив себя от остального мира глубоким рвом, наивно верят, что смогут уберечься от нечисти, не понимая, что она уже давно поселилась в их душах и только ждёт случая, чтобы вырваться наружу. Даже в страшном сне учёный-материалист не предполагал, что здесь ему уготована встреча с верным слугой дьявола.

    Примечание: Телеверсия длиннее театральной на 23 минуты
    Мировая премьера:30 января 2014

    • Качество: WEB-DL 1080p
    • Формат: MKV
    • Видео кодек: AVC
    • Аудио кодек:AC3
    • Видео: AVC, 1920x1076 (16:9), 4000 kbps, 25 fps, 0,077 bpp
    • Аудио: AC3 / 2.0 / 44 kHz / 192 kbps / 16 bit


    Код:

    General
    Unique ID                                : 217584272877000890382014833497685113270 (0xA3B134E76AEEB8C4826111E357C439B6)
    Complete name                            : D:ТорентыВий-WEBDL-1080pВий-Телеверсия-1 серия.mkv
    Format                                   : Matroska
    Format version                           : Version 2
    File size                                : 2.28 GiB
    Duration                                 : 1h 17mn
    Overall bit rate                         : 4 193 Kbps
    Encoded date                             : UTC 2014-03-29 17:33:58
    Writing application                      : mkvmerge v6.1.0 ('Old Devil') built on Mar  4 2013 09:10:42
    Writing library                          : libebml v1.3.0 + libmatroska v1.4.0

    Video
    ID                                       : 1
    Format                                   : AVC
    Format/Info                              : Advanced Video Codec
    Format profile                           : High@L4.0
    Format settings, CABAC                   : Yes
    Format settings, ReFrames                : 3 frames
    Codec ID                                 : V_MPEG4/ISO/AVC
    Duration                                 : 1h 17mn
    Bit rate                                 : 4 000 Kbps
    Width                                    : 1 920 pixels
    Height                                   : 1 076 pixels
    Display aspect ratio                     : 16:9
    Frame rate                               : 25.000 fps
    Color space                              : YUV
    Chroma subsampling                       : 4:2:0
    Bit depth                                : 8 bits
    Scan type                                : Progressive
    Bits/(Pixel*Frame)                       : 0.077
    Stream size                              : 2.13 GiB (93%)
    Writing library                          : x264 core 142 r2389 956c8d8
    Encoding settings                        : cabac=1 / ref=3 / deblock=1:0:0 / analyse=0x3:0x133 / me=umh / subme=7 / psy=1 / psy_rd=1.00:0.00 / mixed_ref=1 / me_range=32 / chroma_me=1 / trellis=2 / 8x8dct=1 / cqm=0 / deadzone=21,11 / fast_pskip=1 / chroma_qp_offset=-2 / threads=12 / lookahead_threads=2 / sliced_threads=0 / nr=0 / decimate=1 / interlaced=0 / bluray_compat=0 / constrained_intra=0 / bframes=0 / weightp=0 / keyint=75 / keyint_min=26 / scenecut=40 / intra_refresh=0 / rc_lookahead=50 / rc=2pass / mbtree=0 / bitrate=4000 / ratetol=1.0 / qcomp=0.20 / qpmin=10 / qpmax=51 / qpstep=4 / cplxblur=20.0 / qblur=0.5 / vbv_maxrate=5000 / vbv_bufsize=5000 / nal_hrd=none / filler=0 / ip_ratio=1.40 / aq=1:1.00
    Default                                  : Yes
    Forced                                   : No
    Color primaries                          : BT.709-5, BT.1361, IEC 61966-2-4, SMPTE RP177
    Transfer characteristics                 : BT.709-5, BT.1361
    Matrix coefficients                      : BT.709-5, BT.1361, IEC 61966-2-4 709, SMPTE RP177

    Audio
    ID                                       : 2
    Format                                   : AC-3
    Format/Info                              : Audio Coding 3
    Mode extension                           : CM (complete main)
    Codec ID                                 : A_AC3
    Duration                                 : 1h 17mn
    Bit rate mode                            : Constant
    Bit rate                                 : 192 Kbps
    Channel(s)                               : 2 channels
    Channel positions                        : Front: L R
    Sampling rate                            : 44.1 KHz
    Bit depth                                : 16 bits
    Compression mode                         : Lossy
    Stream size                              : 107 MiB (5%)
    Default                                  : Yes
    Forced                                   : No

    Скриншоты:

    Трейлеры к фильмам [2014]
    © Оформление by Raven pb.wtf



  • Скачать Вий через торрент http://i3.imageban.ru/out/2014/03/30/b1c5a299cc05cf7f59990ae67ffc0f84.png Скачать фильм Вий [1-2 серия из 2] через торрент бесплантно в хорошем качестве Описание:Начало XVIII века. Картограф Джонатан Грин совершает научное путешествие из Европы на Восток. Проследовав через Трансильванию и ... 9.2 10 33
    Info! Золотая раздача, скачанное не засчитывается.
    Торрент: Зарегистрирован [2014-03-30 11:44] · скачан: 350 раз
    Статус: √ проверено
    Размер: 4.51 GB
    Как cкачать? Как скачать Вий через торрент | qTorrent

    % Раздел Тема Автор DL S | L
    Фильмы [HD 720p, 1080p] (Хороший звук DUB, MVO) [ 11.92 GB ] Вий [2013 BDRip 1080p ] Seedtank Скачать
    1 | 1
    Зарубежная Поп музыка (mp3) [ 80 MB ] ABBA - ВИА АББА 1977 / MP3 / 320 kbps / Pop Dance Disco Retro megatoxa Скачать
    6 | 0
    Наши сериалы [ 7.62 GB ] Истребители. Последний бой / Сезон:2 / Серии:1-12 из 12 [2015 Военный WEB-DLRip] lug30 Скачать
    1 | 1
    Наши сериалы [ 1.84 GB ] Смерш / Серии: 1-4 из 4 [2007 Военный DVDRip] lug30 Скачать
    1 | 1
    Отечественная Поп музыка (mp3) [ 132 MB ] ВИА Пламя - Не повторяется такое никогда 1996 / MP3 / 320 kbps / Советская эстрада Retro megatoxa Скачать
    1 | 0
    Наши новые фильмы 2013 [ 1.46 GB ] Вий [2013 фентези DVDRip] Ворон Скачать
    2 | 0
    Порно фильмы с сюжетом [ 1.29 GB ] Рабыня Содомских Удовольствий / Schiava Dei Piaceri Di Sodoma [1995 Feature DVDRip Оригинал] Pir@tya2010 Скачать
    1 | 0


    >> Регистрируемся здесь <<






    Отзывы и комментарии о схеме читаем и пишем здесь: ---> Отзывы и комментарии о схеме

    Новые благодарочки в телеграм довольных пользователей:
    скриншот   скриншот   скриншот   скриншот   скриншот

    06-04-2014 10:41 Вий Скачать торрент  

    Отличный фильм. Интригующий сюжет!pb.wtf



    02-11-2014 13:26 Вий Скачать торрент  

    дайте скоростиpb.wtf



      Дорогой пользователь! Огромная просьба, поблагодарите релизера, оцените раздачу и оставьте свои комментарий, если Вы скачали Вий через торрент бесплатно! Внесите свою лепту в развитие PiratBit!
      Комментировать посты могут только пользователи прошедшие не сложную регистрацию
      Показать сообщения:    

      Вий через торрент
      Скачать бесплатно Вий
      Вий скачать торрент
      Вий смотреть онлайн
      Cкачать фильм Вий бесплатно
      Вий скачать торрент в хорошем качестве
      Вий смотреть онлайн бесплатно в хорошем качестве


      Вы не можете начинать темы
      Вы не можете отвечать на сообщения
      Вы не можете редактировать свои сообщения
      Вы не можете удалять свои сообщения
      Вы не можете голосовать в опросах
      Вы не можете прикреплять файлы к сообщениям
      Вы можете скачивать файлы