2 сезон

iTunes

MVO

1

2 сезон

iTunes

iTunes

1 сезон

RePack

30

Новинка

ВАЖНО

ИГРА 18+

pack

RePack

MK11
pack

Легкие деньги

RePack

jed

RePack

fifa19

RePack

RDR2

RePack

NEED FOR SPEED™ PAYBACK

4 сезон

9 сезон

Бесстыжие 9 сезон

Все сериалы

все сериалы на PB.wtf

RePack

FAR CRY 5

Anonymous, добрый день, мы не успеваем собрать деньги на оплату серверов за декабрь и январь, помогите нам пожалуйста в это трудное время. В качестве благодарности мы отключим Вам всю рекламу на сайте (укажите свой ник в строку Ваше имя)!

×
  
Magnet ссылка

The Cure - Лучшие Хиты / The Cure - Greatest Hits [2001 г., Альтернативный рок, готик-рок, пост-панк, новая волна, DVDRip] pb.wtf

The Cure - Лучшие Хиты через торрент pb.wtf

Размер: 1.36 GB | Добавлен: 6 лет 9 мес. назад | Торрент скачан:29 раз
Скачать  

31-03-2014 18:27 The Cure - Лучшие Хиты Скачать торрент  

The Cure - Лучшие Хиты / The Cure - Greatest Hits
Год выпуска: 2001
Страна: UK Elektra Records
Жанр: Альтернативный рок, готик-рок, пост-панк, новая волна
Продолжительность: 01:45:00
Перевод: Оригинал
В ролях: The Cure Описание: К своему 25-летию группа традиционно выпустила пластинку «бестов». Причём музыканты избрали не самый лёгкий путь: и не лень им было переписывать все свои хиты в акустическом исполнении. Кроме того - несколько необычный ход - для диска «The Greatest Hits» музыканты приготовили и две совершенно новые песни (например, «Cut Here»).
01. Boys Don't Cry
02. A Forest
03. Let's Go to Bed
04. The Walk
05. The Love Cats
06. In Between Days
07. Close to Me
08. Why Can't I Be You?
09. Just Like Heaven
10. Lullaby
11. Lovesong
12. Never Enough
13. High
14. Friday I'm in Love
15. Mint Car
16. Wrong Number
17. Cut Here
18. Just Say Yes
Бонус. Акустические версии:
01. A Forest
02. The Lovecats
03. Close to Me
04. Lullaby
05. Friday I'm in Love
06. Just Say Yes
The Cure - британская рок-группа, образованная в Кроули (англ. Crawley, Суссекс, Англия) в 1976 году. За время существования состав группы неоднократно менялся, её единственным постоянным участником остаётся фронтмен, вокалист, гитарист и автор песен Роберт Смит. Группа возникла в конце 1970-х, во время бума пост-панка и новой волны, пришедших в Великобритании на смену панк-року. Её дебютом стали сингл «Killing an Arab» и альбом Three Imaginary Boys (1979). В начале 1980-х The Cure записывали нигилистические, мрачные и наполненные трагизмом работы, которые сыграли важную роль в формировании готического рока. После выпуска Pornography (1982) дальнейшее существование группы было под вопросом, и Смит решил изменить её имидж. Начиная с сингла «Let’s Go to Bed» (1982) The Cure всё чаще стали записывать лёгкие, ориентированные на поп-сцену песни. B конце 1980-х благодаря серии удачных альбомов популярность The Cure росла, в том числе в США, где синглы «Lovesong», «Just Like Heaven» и «Friday I’m in Love» попали в Billboard Hot 100. К началу 1990-х The Cure стали одной из самых популярных групп в жанре альтернативного рока. По состоянию на 2004 год суммарные продажи всех альбомов составляли 27 миллионов копий. За более чем тридцать лет The Cure выпустили тринадцать студийных альбомов и тридцать девять синглов.
Качество: DVDRip
Формат: AVI
Видео кодек: XviD
Аудио кодек: AC3
Видео: Xvid 688x512, 25.00fps, 1 400 Kbps
Аудио#1: Dolby AC3, 48000Hz, 6ch, 448kbps
Релиз от: Nata7





General
Complete name : H:The.Cure-Khiti.(plus.bonus).2001.XviD.DVDRip.Kinozal.TVThe.Cure-Khiti.(1.chast.iz.2).2001.XviD.DVDRip.avi
Format : AVI
Format/Info : Audio Video Interleave
File size : 907 MiB
Duration : 1h 8mn
Overall bit rate : 1 857 Kbps
Movie name : The Cure - Greatest Hits
Director : Rip by Nata7
Original source form/Name : Music Video
Comment : Kinozal.TV

Video
ID : 0
Format : MPEG-4 Visual
Format profile : Advanced Simple@L5
Format settings, BVOP : 1
Format settings, QPel : No
Format settings, GMC : No warppoints
Format settings, Matrix : Default (MPEG)
Muxing mode : Packed bitstream
Codec ID : XVID
Codec ID/Hint : XviD
Duration : 1h 8mn
Bit rate : 1 400 Kbps
Width : 688 pixels
Height : 512 pixels
Display aspect ratio : 4:3
Frame rate : 25.000 fps
Color space : YUV
Chroma subsampling : 4:2:0
Bit depth : 8 bits
Scan type : Progressive
Compression mode : Lossy
Bits/(Pixel*Frame) : 0.159
Stream size : 683 MiB (75%)
Writing library : XviD 1.2.0.dev47 (UTC 2006-11-01)

Audio
ID : 1
Format : AC-3
Format/Info : Audio Coding 3
Mode extension : CM (complete main)
Codec ID : 2000
Duration : 1h 8mn
Bit rate mode : Constant
Bit rate : 448 Kbps
Channel(s) : 6 channels
Channel positions : Front: L C R, Side: L R, LFE
Sampling rate : 48.0 KHz
Bit depth : 16 bits
Compression mode : Lossy
Stream size : 219 MiB (24%)
Alignment : Split accross interleaves
Interleave, duration : 40 ms (1.00 video frame)
Interleave, preload duration : 500 ms

pb.wtf



Скачать The Cure - Лучшие Хиты через торрент http://pic.kartinco.top/images/6/q8lfl.jpg Скачать фильм The Cure - Лучшие Хиты через торрент бесплантно в хорошем качестве Описание: К своему 25-летию группа традиционно выпустила пластинку «бестов». Причём музыканты избрали не самый лёгкий путь: и не лень им ... 9.7 10 3
Info! Золотая раздача, скачанное не засчитывается.
Торрент: Зарегистрирован [2014-03-31 18:27] · скачан: 29 раз
Статус: √ проверено
Размер: 1.36 GB
Как cкачать? Как скачать The Cure - Лучшие Хиты через торрент | UTorrent

28-11-2019 20:33  

Отключить всю рекламу на сайте

    Дорогой пользователь! Огромная просьба, поблагодарите релизера, оцените раздачу и оставьте свои комментарий, если Вы скачали The Cure - Лучшие Хиты через торрент бесплатно! Внесите свою лепту в развитие PiratBit!
    Комментировать посты могут только пользователи прошедшие не сложную регистрацию
    Показать сообщения:    

    The Cure - Лучшие Хиты через торрент
    Скачать бесплатно The Cure - Лучшие Хиты
    The Cure - Лучшие Хиты скачать торрент
    The Cure - Лучшие Хиты смотреть онлайн
    Cкачать фильм The Cure - Лучшие Хиты бесплатно
    The Cure - Лучшие Хиты скачать торрент в хорошем качестве
    The Cure - Лучшие Хиты смотреть онлайн бесплатно в хорошем качестве


    Вы не можете начинать темы
    Вы не можете отвечать на сообщения
    Вы не можете редактировать свои сообщения
    Вы не можете удалять свои сообщения
    Вы не можете голосовать в опросах
    Вы не можете прикреплять файлы к сообщениям
    Вы можете скачивать файлы