2 сезон

iTunes

MVO

1

2 сезон

iTunes

iTunes

1 сезон

RePack

30

Новинка

ВАЖНО

ИГРА 18+

pack

RePack

MK11
pack

Легкие деньги

RePack

jed

RePack

fifa19

RePack

RDR2

RePack

NEED FOR SPEED™ PAYBACK

4 сезон

9 сезон

Бесстыжие 9 сезон

Все сериалы

все сериалы на PB.wtf

RePack

FAR CRY 5

Anonymous, добрый вечер, мы не успеваем собрать деньги на оплату серверов за декабрь и январь, помогите нам пожалуйста в это трудное время. В качестве благодарности мы отключим Вам всю рекламу на сайте (укажите свой ник в строку Ваше имя)!

×
  
Magnet ссылка

Любовь и секс на Ибице / Verliefd op Ibiza (Йохан Нийенхейс / Johan Nijenhuis) [2013, Нидерланды, мелодрама, комедия, BDRip,Профессиональный (многоголосый, закадровый)[Лицензия] pb.wtf

Любовь и секс на Ибице через торрент pb.wtf

Размер: 2.04 GB | Добавлен: 6 лет 9 мес. назад | Торрент скачан:407 раз
Скачать  

31-03-2014 19:05 Любовь и секс на Ибице Скачать торрент  

Любовь и секс на Ибице / Verliefd op Ibiza


  • Год выпуска: 2013
  • Страна: Нидерланды
  • Жанр: мелодрама, комедия

  • Продолжительность: 01:52:01
  • Перевод: Профессиональный (многоголосый, закадровый)[Лицензия]

  • Субтитры: Нет
  • Режиссер: Йохан Нийенхейс / Johan Nijenhuis
  • В ролях:

    Виллеке ван Аммельрой (Omi Karla), Йим Баккум (Lars), Рик Энгелкес (Lex), Ким Феенстра (Elza), Джаспер Готтлиб (Dylan), Мариус Готтлиб (Boyd), Симоне Клейнсма (Irma), Ян Коейман (Kevin), Лоне ван Росендал (Jacky), Дэвид Люсиер (Pim), Гиги Равелли (Zara), Марли ван дер Вельден (Bibi)
    • Описание:
      Футболист Кевин только что заключил выгодный контракт с мадридским Реалом. Он вряд ли понимает, что делать со свалившимся на него богатством, но его подруга Эльза знает, как Кевин должен тратить свои миллионы... Две 40-летних подруги Джеки и Ирма хотя и проводят отпуск вместе, но имеют разные представления об идеальном отдыхе: Джеки предпочитает тусоваться с молодыми горячими парнями, тогда как Ирме милее спокойный отдых на пляже с книгой... Братья Дилан и Бойд мечтают стать DJ-звездами мирового класса... Пути всех этих героев пересекаются на острове Ибица.

    Мировая премьера:28 января 2013
    • Качество: BDRip
    • Формат: AVI
    • Видео кодек: XviD
    • Аудио кодек:AC3
    • Видео: 700x400 (16:9), 1699 kbps, 25 fps, 0,243 bpp
    • Аудио №1: AC3 / 5.1 / 48 kHz / 448 kbps / 16 bit[Русский]
    • Аудио №2: AC3 / 5.1 / 48 kHz / 448 kbps / 16 bit [Датский]


    Код:

    General
    Complete name                            : D:ТорентыVerliefd.op.Ibiza.2013.BDRip.avi
    Format                                   : AVI
    Format/Info                              : Audio Video Interleave
    Format profile                           : OpenDML
    File size                                : 2.04 GiB
    Duration                                 : 1h 52mn
    Overall bit rate                         : 2 612 Kbps
    Writing application                      : Lavf51.12.1

    Video
    ID                                       : 0
    Format                                   : MPEG-4 Visual
    Format profile                           : Simple@L1
    Format settings, BVOP                    : No
    Format settings, QPel                    : No
    Format settings, GMC                     : No warppoints
    Format settings, Matrix                  : Default (H.263)
    Codec ID                                 : FMP4
    Duration                                 : 1h 52mn
    Bit rate                                 : 1 699 Kbps
    Width                                    : 700 pixels
    Height                                   : 400 pixels
    Display aspect ratio                     : 16:9
    Frame rate                               : 25.000 fps
    Color space                              : YUV
    Chroma subsampling                       : 4:2:0
    Bit depth                                : 8 bits
    Scan type                                : Progressive
    Compression mode                         : Lossy
    Bits/(Pixel*Frame)                       : 0.243
    Stream size                              : 1.33 GiB (65%)
    Writing library                          : Lavc51.40.4

    Audio #1
    ID                                       : 1
    Format                                   : AC-3
    Format/Info                              : Audio Coding 3
    Mode extension                           : CM (complete main)
    Codec ID                                 : 2000
    Duration                                 : 1h 52mn
    Bit rate mode                            : Constant
    Bit rate                                 : 448 Kbps
    Channel(s)                               : 6 channels
    Channel positions                        : Front: L C R, Side: L R, LFE
    Sampling rate                            : 48.0 KHz
    Bit depth                                : 16 bits
    Compression mode                         : Lossy
    Stream size                              : 359 MiB (17%)
    Alignment                                : Aligned on interleaves
    Interleave, duration                     : 32 ms (0.80 video frame)
    Interleave, preload duration             : 32 ms

    Audio #2
    ID                                       : 2
    Format                                   : AC-3
    Format/Info                              : Audio Coding 3
    Mode extension                           : CM (complete main)
    Codec ID                                 : 2000
    Duration                                 : 1h 52mn
    Bit rate mode                            : Constant
    Bit rate                                 : 448 Kbps
    Channel(s)                               : 6 channels
    Channel positions                        : Front: L C R, Side: L R, LFE
    Sampling rate                            : 48.0 KHz
    Bit depth                                : 16 bits
    Compression mode                         : Lossy
    Stream size                              : 359 MiB (17%)
    Alignment                                : Aligned on interleaves
    Interleave, duration                     : 32 ms (0.80 video frame)
    Interleave, preload duration             : 32 ms

    Скриншоты:

    Трейлеры к фильмам [2014]
    © Оформление by Raven pb.wtf



  • Скачать Любовь и секс на Ибице через торрент http://pic.kartinco.top/images/6/veqyb.jpg Скачать фильм Любовь и секс на Ибице через торрент бесплантно в хорошем качестве Описание:Футболист Кевин только что заключил выгодный контракт с мадридским Реалом. Он вряд ли понимает, что делать со свалившимся на него ... 9.2 10 13
    Info! Золотая раздача, скачанное не засчитывается.
    Торрент: Зарегистрирован [2014-03-31 19:05] · скачан: 407 раз
    Статус: √ проверено
    Размер: 2.04 GB
    Как cкачать? Как скачать Любовь и секс на Ибице через торрент | UTorrent

    28-11-2019 20:33  

    Отключить всю рекламу на сайте

      Дорогой пользователь! Огромная просьба, поблагодарите релизера, оцените раздачу и оставьте свои комментарий, если Вы скачали Любовь и секс на Ибице через торрент бесплатно! Внесите свою лепту в развитие PiratBit!
      Комментировать посты могут только пользователи прошедшие не сложную регистрацию
      Показать сообщения:    

      Любовь и секс на Ибице через торрент
      Скачать бесплатно Любовь и секс на Ибице
      Любовь и секс на Ибице скачать торрент
      Любовь и секс на Ибице смотреть онлайн
      Cкачать фильм Любовь и секс на Ибице бесплатно
      Любовь и секс на Ибице скачать торрент в хорошем качестве
      Любовь и секс на Ибице смотреть онлайн бесплатно в хорошем качестве


      Вы не можете начинать темы
      Вы не можете отвечать на сообщения
      Вы не можете редактировать свои сообщения
      Вы не можете удалять свои сообщения
      Вы не можете голосовать в опросах
      Вы не можете прикреплять файлы к сообщениям
      Вы можете скачивать файлы