Ссылка на приватное зеркало нашего сайта всего за 1$. Внимание количество ограничено!!!

2 сезон

iTunes

1 сезон

1

2 сезон

2 сезон

iTunes

1 сезон

RePack

30

Ultimate

ВАЖНО

ИГРА 18+

pack

RePack

MK11
pack

Забери бонус

RePack

jed

!!Акция!!

Alien_Rage

RePack

fifa19

RePack

Assassins Creed: Odyssey

RePack

NEED FOR SPEED™ PAYBACK

4 сезон

9 сезон

Бесстыжие 9 сезон

Все сериалы

все сериалы на PB.wtf

RePack

FAR CRY 5
  

Индевор / Стремление / Endeavour / Сезон:1 / Серии:1-4 серии из 4 + Спецэпизод (Рассел Льюис, Колм МакКарти) [2012-2013 г.,Классический детектив, криминальная драма, нуар-детектив , WEB-DLRip] MVO [Jaskier] pb.wtf

Индевор через торрент pb.wtf

Размер: 5.43 GB | Добавлен: 6 лет 7 мес. назад | Торрент скачан:77 раз
Скачать  

31-03-2014 20:26 Индевор Скачать торрент  

Индевор / Стремление / EndeavourГод выпуска: 2012-2013
Страна: Великобритания Mammoth Screen, Masterpiece, ITV Studios
Жанр: Классический детектив, криминальная драма, нуар-детектив
Продолжительность: 5 x ~ 01:30:00
Перевод: Профессиональный многоголосый [студия Jaskier]

Перевод: Альберт Фасхутдинов
Роли озвучивали: Денис Строев, Вячеслав Козлов, Сергей Пономарёв, Михаил Кшиштовский и Рина Гришина


Режиссер: Рассел Льюис, Колм МакКарти
Продюссер: Мишель Бак, Хельга Доуи, Ребекка Итон
Сценарий: Колин Декстер, Расселл Льюис
Премьера в мире: 14 апреля 2013 В ролях: Шон Эванс, Роджер Аллам, Чарли Крид-Майлз, Дэниэл Уэбб, Патрик Мэлахайд, Эбигейл Тоу, Джон Лайт, Ричард Линтерн, Флора Монтгомери, Джек Эштон Описание: 1965 год. Эндевор Морс расследует пропажу школьницы, по ходу дела понимая, что возвращается обратно в Оксфорд — к месту, которое вскоре решит его дальнейшую судьбу. Он принимает участие в крупном расследовании убийства, главным инспектором которого является Фред Тьюздем. Эндевор оказывается в тупике и его отстраняют от дела. Вновь столкнувшись со своим не очень приятным прошлым, он решает начать поход во имя справедливости. Ему придется столкнутся с множеством неприятностей…

Качество: WEB-DLRip
Формат: AVI
Видео кодек: XviD
Аудио кодек: AC3
Видео: Xvid 720x400, 25.00fps,
Аудио#1: MPEG Audio Layer 3, 48000Hz, stereo, 128kbps Русский
Аудио#2: MPEG Audio Layer 3, 48000Hz, stereo, 128kbps Английский
Релиз от: Dantenecto
Действие истории берет свое начало в далеком 1965 году в прекрасной на то время Великобритании. Эта старинная страна уже тогда занимала одно из первых мест среди стран мира и считалась одной из самых развитых в сфере детективного сыска. Но как бы там ни было загадочные преступления происходят во всем мире и старушка Англия новым исключением считаться не будет. Необъяснимые и в тоже время жестокие преступления с разнообразной периодичностью будут совершаться в уголках Соединенного королевства. Расследованием довольно таки загадочных преступлений взялся детектив которого зовут Индевор Морс. Этот герой – очень честолюбивый и в тоже время талантливый молодой мужчина, у которого с самого детства проростался талант к криминалистике и великолепно точное логическое мышление. Его имя которое звучит как «Индевор» означает некое стремление. Родители смогли дать своему потому благоприятные условия для того, чтобы он стал великим человеком. Но все таки Морсу его имя не очень нравится, и как бы там ни было парень всегда восхищался его смыслом и пытался всеми силами соответствовать тому, что имя ему давало от самого рождения. После окончания школы, Индевор смог поступить в очень престижный ВУЗ страны, где очень хорошо учился и который окончил с полным отличием. Парня все время интересовал уголовный розыск, он больше всего на свете любил раскрывать различные преступления. Но, самое главное, у него был к этому огромный талант. После того, как Морс начал работать обычным инспектором, он потрясающе раскрыл большое количество преступлений. И вот для нашего инспектора нашлась новая работенка, в тихий городке Оксфорде, произошла пропажа одной юной девушки, и теперь для того чтобы ее найти нашему герою нужно будет применить все свои знания, которые он накопил до этого момента.





General
Complete name : H:Endeavor.s01.WEB-DLRip.rus.eng.JaskierEndeavour.s01e01.WEB-DLRip.rus.eng.Jaskier.avi
Format : AVI
Format/Info : Audio Video Interleave
File size : 1.08 GiB
Duration : 1h 28mn
Overall bit rate : 1 743 Kbps
Writing application : VirtualDubMod 1.5.10.3 (build 2550/release)
Writing library : VirtualDubMod build 2550/release

Video
ID : 0
Format : MPEG-4 Visual
Format profile : Advanced Simple@L5
Format settings, BVOP : 2
Format settings, QPel : No
Format settings, GMC : No warppoints
Format settings, Matrix : Default (MPEG)
Codec ID : XVID
Codec ID/Hint : XviD
Duration : 1h 28mn
Bit rate : 1 473 Kbps
Width : 720 pixels
Height : 400 pixels
Display aspect ratio : 16:9
Frame rate : 25.000 fps
Color space : YUV
Chroma subsampling : 4:2:0
Bit depth : 8 bits
Scan type : Progressive
Compression mode : Lossy
Bits/(Pixel*Frame) : 0.205
Stream size : 937 MiB (84%)
Writing library : XviD 1.2.1 (UTC 2008-12-04)

Audio #1
ID : 1
Format : MPEG Audio
Format version : Version 1
Format profile : Layer 3
Codec ID : 55
Codec ID/Hint : MP3
Duration : 1h 28mn
Bit rate mode : Constant
Bit rate : 128 Kbps
Channel(s) : 2 channels
Sampling rate : 48.0 KHz
Compression mode : Lossy
Stream size : 81.5 MiB (7%)
Alignment : Aligned on interleaves
Interleave, duration : 40 ms (1.00 video frame)
Interleave, preload duration : 504 ms
Writing library : LAME3.99r
Encoding settings : -m s -V 4 -q 0 -lowpass 17 -b 128

Audio #2
ID : 2
Format : MPEG Audio
Format version : Version 1
Format profile : Layer 3
Codec ID : 55
Codec ID/Hint : MP3
Duration : 1h 28mn
Bit rate mode : Constant
Bit rate : 128 Kbps
Channel(s) : 2 channels
Sampling rate : 48.0 KHz
Compression mode : Lossy
Stream size : 81.5 MiB (7%)
Alignment : Aligned on interleaves
Interleave, duration : 40 ms (1.00 video frame)
Interleave, preload duration : 504 ms
Writing library : LAME3.99r
Encoding settings : -m s -V 4 -q 0 -lowpass 17 -b 128

pb.wtf



Скачать Индевор через торрент http://pic.kartinco.top/images/6/coxo8.jpg Скачать фильм Индевор через торрент бесплантно в хорошем качестве Описание: 1965 год. Эндевор Морс расследует пропажу школьницы, по ходу дела понимая, что возвращается обратно в Оксфорд — к месту, которое ... 10 10 3
Info! Золотая раздача, скачанное не засчитывается.
Торрент: Зарегистрирован [2014-03-31 20:26] · скачан: 77 раз
Статус: √ проверено
Размер: 5.43 GB
Как cкачать? Как скачать Индевор через торрент | qTorrent

28-11-2019 20:33  

Отключить всю рекламу на сайте

    Дорогой пользователь! Огромная просьба, поблагодарите релизера, оцените раздачу и оставьте свои комментарий, если Вы скачали Индевор через торрент бесплатно! Внесите свою лепту в развитие PiratBit!
    Комментировать посты могут только пользователи прошедшие не сложную регистрацию
    Показать сообщения:    

    Индевор через торрент
    Скачать бесплатно Индевор
    Индевор скачать торрент
    Индевор смотреть онлайн
    Cкачать фильм Индевор бесплатно
    Индевор скачать торрент в хорошем качестве
    Индевор смотреть онлайн бесплатно в хорошем качестве


    Вы не можете начинать темы
    Вы не можете отвечать на сообщения
    Вы не можете редактировать свои сообщения
    Вы не можете удалять свои сообщения
    Вы не можете голосовать в опросах
    Вы не можете прикреплять файлы к сообщениям
    Вы можете скачивать файлы