2 сезон

iTunes

MVO

1

2 сезон

iTunes

iTunes

1 сезон

RePack

30

Ultimate

ВАЖНО

ИГРА 18+

pack

RePack

MK11
pack

Легкие деньги

RePack

jed

RePack

fifa19

RePack

RDR2

RePack

NEED FOR SPEED™ PAYBACK

4 сезон

9 сезон

Бесстыжие 9 сезон

Все сериалы

все сериалы на PB.wtf

RePack

FAR CRY 5

Anonymous, добрый день, мы не успеваем собрать деньги на оплату серверов за декабрь и январь, помогите нам пожалуйста в это трудное время. В качестве благодарности мы отключим Вам всю рекламу на сайте (укажите свой ник в строку Ваше имя)!

×
  
Magnet ссылка

Человек из стали в 3D / Man of Steel 3D (Зак Снайдер / Zack Snyder) [2013 г., Фантастика, Фэнтези, Боевик, Приключения, BDRip 1080p, Дубляж + Оригинал] Анаглиф (Дюбуа) pb.wtf

Человек из стали в 3D через торрент pb.wtf

Размер: 9.84 GB | Добавлен: 7 лет 2 мес. назад | Торрент скачан:251 раз
Скачать  

28-10-2013 07:09 Человек из стали в 3D Скачать торрент  

Человек из стали в 3D/ Man of Steel 3D
Год выпуска: 2013
Страна: США, Канада, Великобритания (Warner Bros. Pictures, Legendary Pictures, DC Entertainment, Syncopy)
Жанр: Фантастика, Фэнтези, Боевик, Приключения,
Продолжительность: 02:23:03
Перевод: Дубляж + Оригинал
Субтитры: Русские

Режиссер: Зак Снайдер / Zack Snyder
Продюссер: Кристофер Нолан, Чарльз Ровен, Дебора Снайдер,
Сценарий: Дэвид С. Гойер, Джерри Сигел, Джо Шустер,

Бюджет: $225 000 000
Премьера в мире: 10 июня 2013



В ролях: Генри Кавилл, Эми Адамс, Майкл Шеннон, Рассел Кроу, Дайан Лэйн, Кевин Костнер, Антье Трауэ, Лоренс Фишбёрн, Кристофер Мелони, Гарри Дж. Ленникс
Роли дублировали: Антон Савенков, Рамиля Искандер, Илья Исаев, Денис Беспалый, Анна Каменкова,

Описание: Кларк Кент / Кэл-Эл — молодой человек, который чувствует себя чужаком из-за своей невероятной силы. Много лет назад он был отправлен на Землю с развитой планеты Криптон, и теперь задается вопросом: зачем?
Воспитанный приемными родителями Мартой и Джонатаном Кентами, Кларк знает: обладать сверхспособностями — значит принимать сложные решения. Но когда человечество более всего нуждается в стабильности, оно подвергается нападению. Сможет ли герой восстановить мир, или воспользуется своей силой для того, чтобы окончательно его разрушить?


Доп. информация: Формат 3D: Анаглиф (Дюбуа)



Качество: BDRip 1080p
Формат: MKV
Видео кодек: H.264
Аудио кодек: AC3
Видео: x264, 1920 x 1080, (16:9) 23,976 fps, 8372 Kbps, (0.168 bit/pixel)
Аудио#1: Русский / AC3 / 48 KHz / 6 ch / 640 Kbps
Аудио#2: Английский / AC3 / 48 KHz / 6 ch / 640 Kbps




Общее
Уникальный идентификатор : 253756577379885701424427748406819212851 (0xBEE7BD3567259EF7A140B0440872CE33)
Полное имя : D:DVDMan.of.Steel.(2013).3D(Anaglyph_Dubois).mkv
Формат : Matroska
Версия формата : Version 4 / Version 2
Размер файла : 9,84 Гбайт
Продолжительность : 2 ч. 23 м.
Общий поток : 9848 Кбит/сек
Название фильма : Человек из стали / Man of Steel (2013) 3D(Anaglyph_Dubois)
Дата кодирования : UTC 2013-10-22 11:37:24
Программа кодирования : mkvmerge v6.2.0 ('Promised Land') built on Apr 28 2013 12:22:01
Библиотека кодирования : libebml v1.3.0 + libmatroska v1.4.0

Видео
Идентификатор : 1
Формат : AVC
Формат/Информация : Advanced Video Codec
Профиль формата : Main@L4.0
Параметр CABAC формата : Нет
Параметр ReFrames формата : 4 кадра
Идентификатор кодека : V_MPEG4/ISO/AVC
Продолжительность : 2 ч. 23 м.
Битрейт : 8372 Кбит/сек
Ширина : 1920 пикселей
Высота : 1080 пикселей
Соотношение сторон : 16:9
Режим частоты кадров : Постоянный
Частота кадров : 23,976 кадра/сек
Цветовое пространство : YUV
Субдискретизация насыщенности : 4:2:0
Битовая глубина : 8 бит
Тип развёртки : Прогрессивная
Бит/(Пиксели*Кадры) : 0.168
Размер потока : 8,37 Гбайт (85%)
Заголовок : Man of Steel (2013) 3D(Anaglyph_Dubois).mkv
Библиотека кодирования : x264 core 125 r2200bm 999b753
Настройки программы : cabac=0 / ref=1 / deblock=0:1:1 / analyse=0:0 / me=dia / subme=0 / psy=1 / psy_rd=0.40:0.00 / mixed_ref=0 / me_range=16 / chroma_me=1 / trellis=0 / 8x8dct=0 / cqm=0 / deadzone=21,11 / fast_pskip=1 / chroma_qp_offset=0 / threads=3 / lookahead_threads=1 / sliced_threads=0 / nr=0 / decimate=1 / interlaced=0 / bluray_compat=0 / constrained_intra=0 / bframes=2 / b_pyramid=2 / b_adapt=0 / b_bias=0 / direct=1 / weightb=0 / open_gop=0 / weightp=0 / keyint=250 / keyint_min=23 / scenecut=0 / intra_refresh=0 / rc=crf / mbtree=0 / crf=22.2 / qcomp=0.60 / qpmin=0 / qpmax=69 / qpstep=4 / ip_ratio=1.40 / pb_ratio=1.30 / aq=0
Язык : English
Default : Да
Forced : Нет

Аудио #1
Идентификатор : 2
Формат : AC-3
Формат/Информация : Audio Coding 3
Расширение режима : CM (complete main)
Параметр Endianness формата : Big
Идентификатор кодека : A_AC3
Продолжительность : 2 ч. 23 м.
Вид битрейта : Постоянный
Битрейт : 640 Кбит/сек
Каналы : 6 каналов
Расположение каналов : Front: L C R, Side: L R, LFE
Частота : 48,0 КГц
Битовая глубина : 16 бит
Метод сжатия : С потерями
Задержка видео : -292 мс.
Размер потока : 655 Мбайт (6%)
Заголовок : Дубляж - BD CEE
Язык : Russian
Default : Да
Forced : Нет

Аудио #2
Идентификатор : 3
Формат : AC-3
Формат/Информация : Audio Coding 3
Расширение режима : CM (complete main)
Параметр Endianness формата : Big
Идентификатор кодека : A_AC3
Продолжительность : 2 ч. 23 м.
Вид битрейта : Постоянный
Битрейт : 640 Кбит/сек
Каналы : 6 каналов
Расположение каналов : Front: L C R, Side: L R, LFE
Частота : 48,0 КГц
Битовая глубина : 16 бит
Метод сжатия : С потерями
Задержка видео : -292 мс.
Размер потока : 655 Мбайт (6%)
Заголовок : Original
Язык : English
Default : Нет
Forced : Нет

Текст
Идентификатор : 4
Формат : UTF-8
Идентификатор кодека : S_TEXT/UTF8
Идентификатор кодека/Информация : UTF-8 Plain Text
Заголовок : Форсированные
Язык : Russian
Default : Да
Forced : Нет

Меню
00:00:00.000 : :1
00:11:16.968 : :2
00:20:01.450 : :3
00:30:09.474 : :4
00:39:21.609 : :5
00:48:57.643 : :6
00:59:03.415 : :7
01:08:57.884 : :8
01:17:35.109 : :9
01:28:36.186 : :10
01:40:47.792 : :11
01:50:55.858 : :12
02:00:53.580 : :13
02:10:13.556 : :14
02:12:49.920 : :15

pb.wtf



Скачать Человек из стали в 3D через торрент https://pic.kartinco.top/images/4/fdf7c.jpg Скачать фильм Человек из стали в 3D через торрент бесплантно в хорошем качестве Описание: Кларк Кент / Кэл-Эл — молодой человек, который чувствует себя чужаком из-за своей невероятной силы. Много лет назад он был ... 8.9 10 10
Info! Золотая раздача, скачанное не засчитывается.
Торрент: Зарегистрирован [2013-10-28 07:09] · скачан: 251 раз
Статус: √ проверено
Размер: 9.84 GB
Как cкачать? Как скачать Человек из стали в 3D через торрент | UTorrent

28-11-2019 20:33  

Отключить всю рекламу на сайте

28-10-2013 19:55 Человек из стали в 3D Скачать торрент  

Спасибо. за 3дpb.wtf



29-10-2013 06:05 Человек из стали в 3D Скачать торрент  

Всегда пожалуйста.pb.wtf



    Дорогой пользователь! Огромная просьба, поблагодарите релизера, оцените раздачу и оставьте свои комментарий, если Вы скачали Человек из стали в 3D через торрент бесплатно! Внесите свою лепту в развитие PiratBit!
    Комментировать посты могут только пользователи прошедшие не сложную регистрацию
    Показать сообщения:    

    Человек из стали в 3D через торрент
    Скачать бесплатно Человек из стали в 3D
    Человек из стали в 3D скачать торрент
    Человек из стали в 3D смотреть онлайн
    Cкачать фильм Человек из стали в 3D бесплатно
    Человек из стали в 3D скачать торрент в хорошем качестве
    Человек из стали в 3D смотреть онлайн бесплатно в хорошем качестве


    Вы не можете начинать темы
    Вы не можете отвечать на сообщения
    Вы не можете редактировать свои сообщения
    Вы не можете удалять свои сообщения
    Вы не можете голосовать в опросах
    Вы не можете прикреплять файлы к сообщениям
    Вы можете скачивать файлы