Доктор Стрэндж

Лицензия

Добыча

MVO

Дом дракона

1 сезон

Тор

Лицензия

Мэверик

Лицензия

Там, где раки поют

MVO

Властелин колец

1 сезон

Ultimate

pack

Рекомендуем

30

Repack

ВАЖНО

ВАЖНО

Ghostwire

RePack

jed

RePack

nioh2

RePack

RDR2

RePack

NEED FOR SPEED™ PAYBACK

RePack

скачать торрент

Кинопоиск HD

Острые козырьки 6 сезон

6 сезон

FAR CRY 6

RePack

скачать торрент

Лицензия

скачать торрент

MVO

1

1 сезон

скачать торрент

1 сезон

скачать торрент

Лицензия

  

Белка и Стрелка: Лунные приключения (Александр Храмцов, Инна Евланникова, Вадим Сотсков) [2014, мультфильм, комедия, приключения, семейный, DVD5] R5

Белка и Стрелка: Лунные приключения через торрент pb.wtf

Раздают: 1 [ 0 KB/s ]
Размер: 4.34 GB | Добавлен: 8 лет 6 мес. назад | Торрент скачан:130 раз
Смотреть онлайн Белка и Стрелка: Лунные приключения | Скачать   

01-04-2014 08:48 Белка и Стрелка: Лунные приключения Скачать торрент  


Белка и Стрелка: Лунные приключения
«Полетели вместе!»
Страна: Россия
Студия: КиноАтис
Жанр: мультфильм, комедия, приключения, семейный
Год выпуска: 2014
Российская премьера: 6 февраля 2014, 3D
Дата выхода DVD: 1 апреля 2014
Дата выхода Blu-Ray: 1 апреля 2014
Продолжительность: 01:12:03
Перевод: Оригинал [Лицензия]
Cубтитры: нет
Оригинальная аудиодорожка: русский
Режиссер: Александр Храмцов, Инна Евланникова, Вадим Сотсков
Роли озвучивали: Нонна Гришаева, Марьяна Спивак, Евгений Миронов, Тимур Родригез, Сергей Гармаш, Лев Аксельрод, Илья Храмцов, Стася Кудякова, Алексей Колган, Роман Квашнин...
Описание: На Земле начали происходить странные и загадочные явления, несущие угрозу для планеты. Их след ведет в космос, на темную сторону Луны. Раскрыть тайну века поручили отряду Казбека. Белка, Стрелка и вся команда веселых и отважных героев отправляются на Луну, чтобы выполнить опасную миссию. Страсть к приключениям, искрометный юмор и великий дух космического братства поддержат в минуту великой опасности и помогут раскрыть всю правду о Луне и ее обитателях.
Бонусы: Фильм о фильме, Как озвучивали мультфильм, Официальный трейлер, "Веня и Луноход", 4 тизера.

Релиз группы:
Качество: DVD5 R5
Формат: DVD-Video
Видео кодек: MPEG2
Аудио кодек: AC3
Видео: PAL 16:9 (720x576(0.578)) MPEG Video, 25,000 кадр/сек, 5990 Кбит/сек
Аудио: Russian (Dolby AC3, 6 ch) 448 Кбит/сек, 48,0 КГц



Title: Belka.i.Strelka.2013.DVD5
Size: 4.34 Gb ( 4 552 608,00 KBytes ) - DVD-5
Enabled regions: 1, 2, 3, 4, 5, 6, 7, 8

VTS_01 :
Play Length: 00:00:19
Video: PAL 4:3 (720x576) VBR
Audio:
Not specified (Dolby AC3, 2 ch)

VTS_02 :
Play Length: 01:12:03
Video: PAL 16:9 (720x576) VBR, Auto Letterboxed
Audio:
Russian (Dolby AC3, 6 ch)

VTS_03 :
Play Length: 00:07:06
Video: PAL 16:9 (720x576) VBR, Auto Letterboxed
Audio:
Not specified (Dolby AC3, 2 ch)

VTS_04 :
Play Length: 00:12:32
Video: PAL 16:9 (720x576) VBR, Auto Letterboxed
Audio:
Not specified (Dolby AC3, 2 ch)

VTS_05 :
Play Length: 00:01:12
Video: PAL 16:9 (720x576) VBR, Auto Letterboxed
Audio:
Not specified (Dolby AC3, 2 ch)

VTS_06 :
Play Length: 00:00:30
Video: PAL 16:9 (720x576) VBR, Auto Letterboxed
Audio:
Not specified (Dolby AC3, 2 ch)

VTS_07 :
Play Length: 00:00:20
Video: PAL 16:9 (720x576) VBR, Auto Letterboxed
Audio:
Not specified (Dolby AC3, 2 ch)

VTS_08 :
Play Length: 00:01:13
Video: PAL 16:9 (720x576) VBR, Auto Letterboxed
Audio:
Not specified (Dolby AC3, 2 ch)

VTS_09 :
Play Length: 00:00:28
Video: PAL 16:9 (720x576) VBR, Auto Letterboxed
Audio:
Not specified (Dolby AC3, 2 ch)

* Menus Information *

VIDEO_TS Menu
Video:
PAL 16:9 (720x576) VBR
Auto Pan&Scan, Auto Letterboxed
English Language Unit :
Title Menu

VTS_01 Menu
Video:
PAL 16:9 (720x576) VBR
Auto Letterboxed
Audio:
Not specified (Dolby AC3, 2 ch)
English Language Unit :
Root Menu

VTS_02 Menu
Video:
PAL 4:3 (720x576) VBR
English Language Unit :
Root Menu

VTS_03 Menu
Video:
PAL 4:3 (720x576) VBR
English Language Unit :
Root Menu

VTS_04 Menu
Video:
PAL 4:3 (720x576) VBR
English Language Unit :
Root Menu

VTS_05 Menu
Video:
PAL 4:3 (720x576) VBR
English Language Unit :
Root Menu

VTS_06 Menu
Video:
PAL 4:3 (720x576) VBR
English Language Unit :
Root Menu

VTS_07 Menu
Video:
PAL 4:3 (720x576) VBR
English Language Unit :
Root Menu

VTS_08 Menu
Video:
PAL 4:3 (720x576) VBR
English Language Unit :
Root Menu

VTS_09 Menu
Video:
PAL 4:3 (720x576) VBR
English Language Unit :
Root Menu
Общее
Полное имя : D:Новинки 2014Belka.i.Strelka.2013.DVD5VIDEO_TSVTS_02_1.VOB
Формат : MPEG-PS
Размер файла : 1024 Мбайт
Продолжительность : 21 м.
Режим общего битрейта : Переменный
Общий поток : 6569 Кбит/сек

Видео
Идентификатор : 224 (0xE0)
Формат : MPEG Video
Версия формата : Version 2
Профиль формата : [email protected]
Параметр BVOP формата : Да
Параметр матрицы формата : По умолчанию
Параметр GOP формата : M=3, N=12
Продолжительность : 21 м.
Вид битрейта : Переменный
Битрейт : 5990 Кбит/сек
Максимальный битрейт : 8000 Кбит/сек
Ширина : 720 пикселей
Высота : 576 пикселей
Соотношение сторон : 16:9
Частота кадров : 25,000 кадров/сек
Стандарт вещания : PAL
Цветовое пространство : YUV
Субдискретизация насыщенности : 4:2:0
Битовая глубина : 8 бит
Тип развёртки : Прогрессивная
Метод сжатия : С потерями
Бит/(Пиксели*Кадры) : 0.578
Временной код первого кадра : 00:00:00:00
Оригинал временного кода : Group of pictures header
Размер потока : 934 Мбайт (91%)

Аудио
Идентификатор : 189 (0xBD)-128 (0x80)
Формат : AC-3
Формат/Информация : Audio Coding 3
Расширение режима : CM (complete main)
Параметр Endianness формата : Big
Режим смешивания : DVD-Video
Продолжительность : 21 м.
Вид битрейта : Постоянный
Битрейт : 448 Кбит/сек
Каналы : 6 каналов
Расположение каналов : Front: L C R, Side: L R, LFE
Частота : 48,0 КГц
Битовая глубина : 16 бит
Метод сжатия : С потерями
Размер потока : 69,8 Мбайт (7%)













Скачать Белка и Стрелка: Лунные приключения через торрент http://i33.fastpic.ru/big/2014/0331/d3/107e1cca8fd98cb24cf9dbd8f0ccfbd3.jpg Скачать, смотреть онлайн Белка и Стрелка: Лунные приключения бесплантно в хорошем качестве Описание: На Земле начали происходить странные и загадочные явления, несущие угрозу для планеты. Их след ведет в космос, на темную сторону ... 10 10 4
Info! Золотая раздача, скачанное не засчитывается.
Торрент: Зарегистрирован [2014-04-01 08:48] · скачан: 130 раз
Статус: √ проверено
Размер: 4.34 GB
Как cкачать? Как скачать Белка и Стрелка: Лунные приключения через торрент | UTorrent

% Раздел Тема Автор DL S | L
Мультфильмы (48-60 fps) [ 3 GB ] Белка и Стрелка: Лунные приключения | | BDRip-AVC 60fps, Оригинал Ressident Скачать
1 | 0

28-11-2019 20:33  

Отключить вcю реклaмy на сайте

    Дорогой пользователь! Огромная просьба, поблагодарите релизера, оцените раздачу и оставьте свои комментарий, если Вы скачали Белка и Стрелка: Лунные приключения через торрент бесплатно!!
    Комментировать посты могут только пользователи прошедшие не сложную регистрацию
    Показать сообщения:    


    Белка и Стрелка: Лунные приключения через торрент
    Скачать бесплатно Белка и Стрелка: Лунные приключения
    Белка и Стрелка: Лунные приключения скачать торрент
    Белка и Стрелка: Лунные приключения смотреть онлайн
    Cкачать фильм Белка и Стрелка: Лунные приключения бесплатно
    Белка и Стрелка: Лунные приключения скачать торрент в хорошем качестве
    Белка и Стрелка: Лунные приключения смотреть онлайн бесплатно в хорошем качестве
    Вы не можете начинать темы
    Вы не можете отвечать на сообщения
    Вы не можете редактировать свои сообщения
    Вы не можете удалять свои сообщения
    Вы не можете голосовать в опросах
    Вы не можете прикреплять файлы к сообщениям
    Вы можете скачивать файлы