Ссылка на приватное зеркало нашего сайта всего за 1$. Внимание количество ограничено!!!

2 сезон

iTunes

1 сезон

1

iTunes

iTunes

iTunes

1 сезон

RePack

30

ИГРА 18+

pack

ВАЖНО

!!Акция!!

Alien_RageХит недели

RePack

MK11
pack

Забери бонус

RePack

jed

!!Акция!!

Alien_Rage

RePack

fifa19

RePack

Assassins Creed: Odyssey

RePack

NEED FOR SPEED™ PAYBACK

4 сезон

9 сезон

Бесстыжие 9 сезон

Все сериалы

все сериалы на PB.wtf

RePack

FAR CRY 5
  

Возврат / The Returned (Мануэль Карбальо / Manuel Carballo) [ 2013 , Испания, Канада , ужасы, триллер, драма , HDRip ] DVO [DeadSno & den904] pb.wtf

Возврат через торрент pb.wtf

Размер: 1.46 GB | Добавлен: 6 лет 6 мес. назад | Торрент скачан:134 раза
Скачать  

01-04-2014 12:18 Возврат Скачать торрент  

Возврат / The Returned

Год выпуска: 2013
Страна: Испания, Канада
Жанр: ужасы, триллер, драма
Продолжительность: 01:37:53
Перевод: Любительский (двухголосый) [DeadSno & den904]
Субтитры: Нет

Режиссер: Мануэль Карбальо / Manuel Carballo
Сценарий: Хатем Храиче / Hatem Khraiche
Продюсер: Джордж Аюб / George Ayoub, Хулио Фернандес / Julio FernГЎndez, Гари Хаусэм / Gary Howsam, Билл Маркс / Bill Marks, Adrià Monés
Оператор: Хавьер Г. Сальмонес / Javier G. Salmones
Композитор: Джонатан Голдсмит / Jonathan Goldsmith

В ролях:
Кристен Холден-Рид (Alex), Эмили Хэмпшир (Kate), Шон Дойл (Jacob), Клаудия Бассольс (Amber), Паулино Нюнс (Detective Cawl), Мелина Мэтьюз (Eve), Пол Энтони (Government Spokesperson), Бэрри Флэтмэн (Hospital Chief), Джэми Лайл (Doctor), Emily Alatalo (TV Street Reporter), Michael Cleland (Infected patient / passerby), Стивен Чэмберс (Anti-Returned Activist)

Мировая премьера: 18 октября 2013

Описание:
Кейт работает в госпитале в группе возвращения, помогая тем, кто был инфицирован вирусом, который превращает людей в зомби. Муж Кейт, Джейсон, один из вернувшихся. В результате ряда жестоких нападений и возмущений людей из течения против возврата, которые заявили, что лекарство работает нестабильно, было объявлено, что для безопасности возвращенных их поместят в лечебные учреждения... Кейт, решив не дожидаться санкций, бежит вместе с Джесоном, не ведая, что вся опасность еще впереди...

Рейтинг
imdb.com: 5.80 (1973)

Качество: HDRip
Формат: AVI
Видео кодек: XviD
Аудио кодек: AC3
Видео: 1736 Кбит/сек, 720*304 (2,35:1), в 24,000 кадра/сек, MPEG-4 Visual (XviD)
Аудио: 384 Кбит/сек, 48,0 КГц, 16 бит, 6 каналов, AC-3

Общее
Полное имя : H:ТОРРЕНТЫВозврат.avi
Формат : AVI
Формат/Информация : Audio Video Interleave
Размер файла : 1,46 Гбайт
Продолжительность : 1 ч. 37 м.
Общий поток : 2130 Кбит/сек
Программа кодирования : VirtualDubModRus 1.5.10.2 (build 2542/release)
Библиотека кодирования : VirtualDubMod build 2542/release

Видео
Идентификатор : 0
Формат : MPEG-4 Visual
Профиль формата : Advanced Simple@L5
Параметр BVOP формата : 2
Параметр QPel формата : Нет
Параметр GMC формата : Без точки перехода
Параметр матрицы формата : Default (MPEG)
Режим смешивания : Сжатый битовый поток
Идентификатор кодека : XVID
Идентификатор кодека/Подсказка : XviD
Продолжительность : 1 ч. 37 м.
Битрейт : 1736 Кбит/сек
Ширина : 720 пикселей
Высота : 304 пикселя
Соотношение сторон : 2,35:1
Частота кадров : 24,000 кадра/сек
Цветовое пространство : YUV
Субдискретизация насыщенности : 4:2:0
Битовая глубина : 8 бит
Тип развёртки : Прогрессивная
Метод сжатия : С потерями
Бит/(Пиксели*Кадры) : 0.331
Размер потока : 1,19 Гбайт (82%)
Библиотека кодирования : XviD 64

Аудио
Идентификатор : 1
Формат : AC-3
Формат/Информация : Audio Coding 3
Расширение режима : CM (complete main)
Параметр Endianness формата : Big
Идентификатор кодека : 2000
Продолжительность : 1 ч. 37 м.
Вид битрейта : Постоянный
Битрейт : 384 Кбит/сек
Каналы : 6 каналов
Расположение каналов : Front: L C R, Side: L R, LFE
Частота : 48,0 КГц
Битовая глубина : 16 бит
Метод сжатия : С потерями
Размер потока : 269 Мбайт (18%)
Выравнивание : Разделение по промежуткам
Продолжительность промежутка : 42 мс. (1,00 видеокадр)
Время предзагрузки промежутка : 500 мс.





pb.wtf



Скачать Возврат через торрент http://pic.kartinco.top/images/6/kncwb.jpg Скачать фильм Возврат через торрент бесплантно в хорошем качестве Описание:Кейт работает в госпитале в группе возвращения, помогая тем, кто был инфицирован вирусом, который превращает людей в зомби. Муж ... 9.7 10 6
Торрент: Зарегистрирован [2014-04-01 12:18] · скачан: 134 раз
Статус: T временная
Размер: 1.46 GB
Как cкачать? Как скачать Возврат через торрент | qTorrent

28-11-2019 20:33  

Отключить всю рекламу на сайте

    Дорогой пользователь! Огромная просьба, поблагодарите релизера, оцените раздачу и оставьте свои комментарий, если Вы скачали Возврат через торрент бесплатно! Внесите свою лепту в развитие PiratBit!
    Комментировать посты могут только пользователи прошедшие не сложную регистрацию
    Показать сообщения:    

    Возврат через торрент
    Скачать бесплатно Возврат
    Возврат скачать торрент
    Возврат смотреть онлайн
    Cкачать фильм Возврат бесплатно
    Возврат скачать торрент в хорошем качестве
    Возврат смотреть онлайн бесплатно в хорошем качестве


    Вы не можете начинать темы
    Вы не можете отвечать на сообщения
    Вы не можете редактировать свои сообщения
    Вы не можете удалять свои сообщения
    Вы не можете голосовать в опросах
    Вы не можете прикреплять файлы к сообщениям
    Вы можете скачивать файлы