Ссылка на приватное зеркало всего за 1$. Внимание количество ограничено!!!

iTunes

iTunes

iTunes

1

iTunes

iTunes

iTunes

iTunes

iTunes

30
pack

$ от Little Big

ВАЖНО

!!Акция!!

Alien_RageХит недели

RePack

Resident Evil 21

ИГРА 18+

pack

RePack

jed

!!Акция!!

Alien_Rage

RePack

fifa19

RePack

Assassins Creed: Odyssey

RePack

NEED FOR SPEED™ PAYBACK

4 сезон

9 сезон

Бесстыжие 9 сезон

Все сериалы

все сериалы на PB.wtf

RePack

FAR CRY 5
  

Часто задаваемые вопросы о путешествиях во времени / Frequently Asked Questions About Time Travel (Гарет Карривик) [2009 г., фантастика, комедия, HDTVRip 720p, DVO + VO + Original Eng] pb.wtf

Часто задаваемые вопросы о путешествиях во времени через торрент pb.wtf

Размер: 3.43 GB | Добавлен: 6 лет 3 мес. назад | Торрент скачан:143 раза
Скачать  

01-04-2014 16:00 Часто задаваемые вопросы о путешествиях во времени Скачать торрент  

Часто задаваемые вопросы о путешествиях во времени
Frequently Asked Questions About Time Travel
Год выпуска: 2009
Страна: Великобритания
Жанр: фантастика, комедия
Продолжительность: 01:22:40
Перевод #1: Профессиональный (одноголосый закадровый) ru.slame
Перевод #2: Профессиональный (двухголосый закадровый) Студия NLS
Субтитры: Английские

Режиссер: Гарет Карривик
Продюссер: Нил Пеплоу, Джастин Андерсон Смит, Шарлотта Эшби
Сценарий: Джэми Матисон

Премьера в мире: 16 февраля 2009







В ролях: Криc О`Дауд /Chris O'Dowd/, Анна Фэрис /Anna Faris/, Марк Вуттон /Marc Wootton/, Дин Леннокс Келли /Dean Lennox Kelly/, Мередит МакНейл /Meredith MacNeill/, Рэй Гарднер /Ray Gardner/, Ник Ивэнс /Nick Ewans/, Артур Найтингейл /Arthur Nightingale/




Описание: Трое оболтусов — Рэй, Пит и Тоби — попивают пиво в местном пабе, где ведут разговоры ни о чем. В один из таких вечеров Рэй случайно встречает Кэсси — девушку из будущего, работающую, надо полагать, в патруле времени. И с этой минуты с нашей троицей начнут происходить удивительные приключения благодаря «утечке времени», обнаруженной в туалете. Встретив нескольких версий самих себя, народ начнет бродить во времени, то попадая в далекое будущее после атомной войны, то переносясь в лес, наполненный жуткими монстрами, то на вечеринку в их честь. Да и вообще, где бы ни появлялись парни, они с удивлением узнают, что они — самые известные лица на Земле…




Качество: HDTVRip 720p
Формат: MKV
Видео кодек: AVC
Аудио кодек: AC3
Видео: 1280x720 (16:9) at 23.976 fps, AVC, ~4793 kbps avg
Аудио#1: Русский, AC3, DD 5.1 / 48 kHz / 448 kbps (Одноголосый)
Аудио#2: Русский, AC3, DD 2.0 / 48 kHz / 192 kbps (Двухголосый)
Аудио#3: Английский, AC3, DD 5.1 / 48 kHz / 384 kbps
Автор рипа:
MIFAL
General
Complete name : F.A.Q.About.Time.Travel.HDTVRip.720p.x264.MIF.mkv
Format : Matroska
File size : 3.43 GiB
Duration : 1h 22mn
Overall bit rate : 5 935 Kbps
Encoded date : UTC 2011-06-02 23:05:06
Writing application : mkvmerge v4.0.0 ('The Stars were mine') сборка от Jun 6 2010 16:18:42
Writing library : libebml v1.0.0 + libmatroska v1.0.0
Video
ID : 1
Format : AVC
Format/Info : Advanced Video Codec
Format profile : High@L4.1
Format settings, CABAC : Yes
Format settings, ReFrames : 9 frames
Codec ID : V_MPEG4/ISO/AVC
Duration : 1h 22mn
Bit rate : 4 793 Kbps
Width : 1 280 pixels
Height : 720 pixels
Display aspect ratio : 16:9
Frame rate : 23.976 fps
Color space : YUV
Chroma subsampling : 4:2:0
Bit depth : 8 bits
Scan type : Progressive
Bits/(Pixel*Frame) : 0.217
Stream size : 2.77 GiB (81%)
Writing library : x264 core 105 r1724+278 a6d5907
Encoding settings : cabac=1 / ref=9 / deblock=1:-3:-3 / analyse=0x3:0x133 / me=umh / subme=10 / psy=1 / fade_compensate=0.60 / psy_rd=1.00:0.15 / mixed_ref=1 / me_range=24 / chroma_me=1 / trellis=2 / 8x8dct=1 / cqm=0 / deadzone=21,11 / fast_pskip=0 / chroma_qp_offset=-3 / threads=3 / sliced_threads=0 / nr=0 / decimate=1 / interlaced=0 / constrained_intra=0 / fgo=0 / bframes=8 / b_pyramid=2 / b_adapt=2 / b_bias=0 / direct=3 / weightb=1 / open_gop=0 / weightp=2 / keyint=250 / keyint_min=23 / scenecut=40 / intra_refresh=0 / rc_lookahead=60 / rc=crf / mbtree=1 / crf=16.0 / qcomp=0.60 / qpmin=10 / qpmax=51 / qpstep=4 / vbv_maxrate=50000 / vbv_bufsize=50000 / crf_max=0.0 / ip_ratio=1.40 / aq=1:1.00 / nal_hrd=none
Language : English
Audio #1
ID : 2
Format : AC-3
Format/Info : Audio Coding 3
Mode extension : CM (complete main)
Codec ID : A_AC3
Duration : 1h 22mn
Bit rate mode : Constant
Bit rate : 448 Kbps
Channel(s) : 6 channels
Channel positions : Front: L C R, Side: L R, LFE
Sampling rate : 48.0 KHz
Bit depth : 16 bits
Compression mode : Lossy
Stream size : 265 MiB (8%)
Title : DD 5.1 Odnogolosiy (ru.slame) by MIF
Language : Russian
Audio #2
ID : 3
Format : AC-3
Format/Info : Audio Coding 3
Mode extension : CM (complete main)
Codec ID : A_AC3
Duration : 1h 22mn
Bit rate mode : Constant
Bit rate : 192 Kbps
Channel(s) : 2 channels
Channel positions : Front: L R
Sampling rate : 48.0 KHz
Bit depth : 16 bits
Compression mode : Lossy
Stream size : 114 MiB (3%)
Title : DD 2.0 - Mnogogolosiy (NLS) by MIF
Language : Russian
Audio #3
ID : 4
Format : AC-3
Format/Info : Audio Coding 3
Mode extension : CM (complete main)
Codec ID : A_AC3
Duration : 1h 22mn
Bit rate mode : Constant
Bit rate : 384 Kbps
Channel(s) : 6 channels
Channel positions : Front: L C R, Side: L R, LFE
Sampling rate : 48.0 KHz
Bit depth : 16 bits
Compression mode : Lossy
Delay relative to video : 64ms
Stream size : 227 MiB (6%)
Language : English
Text
ID : 5
Format : UTF-8
Codec ID : S_TEXT/UTF8
Codec ID/Info : UTF-8 Plain Text
Language : English


Часто задаваемые вопросы о путешествиях во времени скачать торрент


pb.wtf



Скачать Часто задаваемые вопросы о путешествиях во времени через торрент http://pic.kartinco.top/images/6/ylfed.jpg Скачать фильм Часто задаваемые вопросы о путешествиях во времени через торрент бесплантно в хорошем качестве Описание: Трое оболтусов — Рэй, Пит и Тоби — попивают пиво в местном пабе, где ведут разговоры ни о чем. В один из таких вечеров Рэй ... 9.9 10 7
Info! Серебряная раздача, засчитывается только 50% скачанного.
Торрент: Зарегистрирован [2014-04-01 16:00] · скачан: 143 раз
Статус: √ проверено
Размер: 3.43 GB
Как cкачать? Как скачать Часто задаваемые вопросы о путешествиях во времени через торрент | qTorrent

% Раздел Тема Автор DL S | L
Фильмы 2009 [ 1.36 GB ] Часто задаваемые вопросы о путешествиях во времени / Frequently Asked Questions About Time Travel [2009 HDRip] Чупачупсик Скачать
1 | 0
Фильмы 2009 [ 735 MB ] Часто задаваемые вопросы о путешествиях во времени / Frequently Asked Questions About Time Travel [2009 DVDRip] belir Скачать
1 | 0

28-11-2019 20:33  

Отключить всю рекламу на сайте

    Дорогой пользователь! Огромная просьба, поблагодарите релизера, оцените раздачу и оставьте свои комментарий, если Вы скачали Часто задаваемые вопросы о путешествиях во времени через торрент бесплатно! Внесите свою лепту в развитие PiratBit!
    Комментировать посты могут только пользователи прошедшие не сложную регистрацию
    Показать сообщения:    

    Часто задаваемые вопросы о путешествиях во времени через торрент
    Скачать бесплатно Часто задаваемые вопросы о путешествиях во времени
    Часто задаваемые вопросы о путешествиях во времени скачать торрент
    Часто задаваемые вопросы о путешествиях во времени смотреть онлайн
    Cкачать фильм Часто задаваемые вопросы о путешествиях во времени бесплатно
    Часто задаваемые вопросы о путешествиях во времени скачать торрент в хорошем качестве
    Часто задаваемые вопросы о путешествиях во времени смотреть онлайн бесплатно в хорошем качестве


    Вы не можете начинать темы
    Вы не можете отвечать на сообщения
    Вы не можете редактировать свои сообщения
    Вы не можете удалять свои сообщения
    Вы не можете голосовать в опросах
    Вы не можете прикреплять файлы к сообщениям
    Вы можете скачивать файлы