Присоединяйтесь к нам в Telegram!, здесь всегда актуальный адрес сайта, оперативная поддержка и многое другое!!

>

5.9

iTunes

7.4

iTunes

9.4

1 сезон

1

7.4

2 сезон

7.2

iTunes

7.3

1 сезон

13

6.1

iTunes

8.3

GOG

30

ULTIMATE

pack

9.9

Лицензия

ВАЖНО

ИГРА 18+

pack

7.3

RePack

MK11

7.7

RePack

jed

7.8

RePack

fifa19

8.5

RePack

RDR2

RePack

NEED FOR SPEED™ PAYBACK

5 сезон

9 сезон

Бесстыжие 9 сезон

Все сериалы

все сериалы на PB.wtf

RePack

FAR CRY 5

Anonymous, добрый вечер, мы катастрофически не успеваем собрать деньги на оплату серверов, помогите нам пожалуйста 5,10,15р., для нас важна любая помощь . В качестве благодарности мы отключим Вам всю рекламу на сайте (укажите свой ник в строку Ваше имя)!

×
  
Magnet ссылка

Игорь Тальков - Не допев куплета... [1991 г., Авторская песня, рок, SATRip] pb.wtf

Игорь Тальков - Не допев куплета... через торрент pb.wtf

Размер: 987 MB | Добавлен: 7 лет 8 мес. назад | Торрент скачан:23 раза
Смотреть онлайн Игорь Тальков - Не допев куплета... | Скачать    Ребята, помогите собрать деньги на оплату серверов!!!

01-04-2014 18:31 Игорь Тальков - Не допев куплета... Скачать торрент  

Игорь Тальков - Не допев куплета...Год выпуска: 1991
Страна: Россия
Жанр: Авторская песня, рок
Продолжительность: 01:39:38
Перевод: Оригинал

В ролях: Игорь Тальков

Описание: Этот музыкальный фильм, посвященный памяти Игоря Талькова, вошли песни: "Чистые пруды" (Д.Тухманов, слова Л.Фадеева), "Спасательный круг" (здесь и далее автор музыки и слов - И.Тальков), "Летний дождь", "Звезда", "Россия", "Господа демократы", "Стоп! -думаю себе", "Друзья - товарищи", "Ты опоздала", "Родина моя", "Таня", "Прощальный день", "Океан непонимания", "К В.Цою" и "Я вернусь".

Качество: SATRip

Формат: AVI
Видео кодек: DivX
Аудио кодек: MP3
Видео: DivX 5 512x384, 25.00fps, 1 248 Kbps
Аудио: MPEG Audio Layer 3, 48000Hz, stereo, 128kbps
Релиз от: honor881





General
Complete name : H:Игорь Тальков - Не допев куплета....avi
Format : AVI
Format/Info : Audio Video Interleave
File size : 987 MiB
Duration : 1h 39mn
Overall bit rate : 1 386 Kbps
Writing application : VirtualDubMod 1.5.10.1 (build 2439/release)
Writing library : VirtualDubMod build 2439/release

Video
ID : 0
Format : MPEG-4 Visual
Format settings, BVOP : 1
Format settings, QPel : No
Format settings, GMC : No warppoints
Format settings, Matrix : Default (H.263)
Muxing mode : Packed bitstream
Codec ID : DX50
Codec ID/Hint : DivX 5
Duration : 1h 39mn
Bit rate : 1 248 Kbps
Width : 512 pixels
Height : 384 pixels
Display aspect ratio : 4:3
Frame rate : 25.000 fps
Color space : YUV
Chroma subsampling : 4:2:0
Bit depth : 8 bits
Scan type : Progressive
Compression mode : Lossy
Bits/(Pixel*Frame) : 0.254
Stream size : 889 MiB (90%)
Writing library : DivX 5.0.5 (UTC 2003-04-24)

Audio
ID : 1
Format : MPEG Audio
Format version : Version 1
Format profile : Layer 3
Mode : Joint stereo
Codec ID : 55
Codec ID/Hint : MP3
Duration : 1h 39mn
Bit rate mode : Constant
Bit rate : 128 Kbps
Channel(s) : 2 channels
Sampling rate : 48.0 KHz
Compression mode : Lossy
Stream size : 91.2 MiB (9%)
Alignment : Split accross interleaves
Interleave, duration : 40 ms (1.00 video frame)
Interleave, preload duration : 500 ms

pb.wtf



Скачать Игорь Тальков - Не допев куплета... через торрент https://pic1.kartinco.top/images/61/duhmo.jpg Скачать, смотреть онлайн Игорь Тальков - Не допев куплета... [1991 г., Авторская песня, рок, SATRip] бесплантно в хорошем качестве Описание: Этот музыкальный фильм, посвященный памяти Игоря Талькова, вошли песни: "Чистые пруды" (Д.Тухманов, слова Л.Фадеева), ... 10 10 5
Info! Золотая раздача, скачанное не засчитывается.
Торрент: Зарегистрирован [2014-04-01 18:31] · скачан: 23 раз
Статус: √ проверено
Размер: 987 MB
Как cкачать? Как скачать Игорь Тальков - Не допев куплета... через торрент | UTorrent

28-11-2019 20:33  

Отключить всю рекламу на сайте

01-04-2014 20:07 Игорь Тальков - Не допев куплета... Скачать торрент  

lug30
Спасибо, друг, самое то сейчас под настроение! pb.wtf



01-04-2014 20:40 Игорь Тальков - Не допев куплета... Скачать торрент  

отличного просмотра и классного настроения!pb.wtf



    Дорогой пользователь! Огромная просьба, поблагодарите релизера, оцените раздачу и оставьте свои комментарий, если Вы скачали Игорь Тальков - Не допев куплета... через торрент бесплатно!
    Комментировать посты могут только пользователи прошедшие не сложную регистрацию
    Показать сообщения:    

    Игорь Тальков - Не допев куплета... через торрент
    Скачать бесплатно Игорь Тальков - Не допев куплета...
    Игорь Тальков - Не допев куплета... скачать торрент
    Игорь Тальков - Не допев куплета... смотреть онлайн
    Cкачать фильм Игорь Тальков - Не допев куплета... бесплатно
    Игорь Тальков - Не допев куплета... скачать торрент в хорошем качестве
    Игорь Тальков - Не допев куплета... смотреть онлайн бесплатно в хорошем качестве


    Вы не можете начинать темы
    Вы не можете отвечать на сообщения
    Вы не можете редактировать свои сообщения
    Вы не можете удалять свои сообщения
    Вы не можете голосовать в опросах
    Вы не можете прикреплять файлы к сообщениям
    Вы можете скачивать файлы