2 сезон

iTunes

MVO

1

2 сезон

iTunes

iTunes

1 сезон

RePack

30

Ultimate

ВАЖНО

ИГРА 18+

pack

RePack

MK11
pack

Легкие деньги

RePack

jed

RePack

fifa19

RePack

RDR2

RePack

NEED FOR SPEED™ PAYBACK

4 сезон

9 сезон

Бесстыжие 9 сезон

Все сериалы

все сериалы на PB.wtf

RePack

FAR CRY 5

Anonymous, доброе утро, мы не успеваем собрать деньги на оплату серверов за декабрь и январь, помогите нам пожалуйста в это трудное время. В качестве благодарности мы отключим Вам всю рекламу на сайте (укажите свой ник в строку Ваше имя)!

×
  
Magnet ссылка

Несвятые / Ain't Them Bodies Saints (Дэвид Лоури / David Lowery) [2013, США, драма, мелодрама, криминал, HDRip,Профессиональный (многоголосый, закадровый) pb.wtf

Несвятые через торрент pb.wtf

Размер: 1.46 GB | Добавлен: 6 лет 9 мес. назад | Торрент скачан:350 раз
Скачать  

01-04-2014 20:29 Несвятые Скачать торрент  

Несвятые / Ain't Them Bodies Saints


  • Год выпуска: 2013
  • Страна: США
  • Жанр: драма, мелодрама, криминал, вестерн

  • Продолжительность: 01:36:00
  • Перевод: Профессиональный (многоголосый, закадровый)

  • Субтитры: Нет
  • Режиссер: Дэвид Лоури / David Lowery
  • В ролях:

    Кейси Аффлек (Bob Muldoon), Руни Мара (Ruth Guthrie), Бен Фостер (Patrick Wheeler), Кит Кэрредин (Skerritt), Кеннади Смит (Sylvie Guthrie), Джеклинн Смит (Sylvie Guthrie), Нэйт Паркер (Sweetie), Роберт Лонгстрит (Cowboy Hat), Чарльз Бэйкер (Bear), Августин Фриззелл (Sissy), Эндрю Неннингер (Freddy), Дэвид Зеллнер (Zellner)
    • Описание:
      Техас, 1970-е годы. Попав в засаду, трое молодых преступников тяжело ранят одного из окруживших их полицейских. Главарь банды Боб Малдун берет всю вину на себя, хотя роковой выстрел сделала его девушка Рут, и отправляется за решетку на много лет. Уже в тюрьме он узнает, что у него родилась дочь Сильвия. Чтобы увидеть девочку Боб совершает побег за побегом, но вырваться на свободу ему удается только через четыре долгих года. Его следы ведут в противоположном от родных мест направлении, однако техасская полиция (и прежде всего Патрик Смоллс - офицер, раненный в той давней перестрелке) считает, что появиться беглец может только там, где находится маленькая Сильвия. Все готово к охоте на Малдуна, но, оказывается, что не только служители закона хотят заставить Боба сполна заплатить по давним счетам.

    Мировая премьера:20 января 2013

    • Качество: HDRip
    • Формат: AVI
    • Видео кодек: XviD
    • Аудио кодек:AC3
    • Видео: XviD, 720x304 (2.35:1), 1944 kbps, 23,976 fps, 0,371 bpp
    • Аудио: AC3 / 2.0 / 48 kHz / 224 kbps / 16 bit


    Код:

    General
    Complete name                            : D:ТорентыNesvjatye.2013.P.HDRip.avi
    Format                                   : AVI
    Format/Info                              : Audio Video Interleave
    File size                                : 1.46 GiB
    Duration                                 : 1h 36mn
    Overall bit rate                         : 2 178 Kbps
    Writing application                      : VirtualDubMod 1.5.10.2 (build 2540/release)
    Writing library                          : VirtualDubMod build 2540/release

    Video
    ID                                       : 0
    Format                                   : MPEG-4 Visual
    Format profile                           : Advanced Simple@L5
    Format settings, BVOP                    : 2
    Format settings, QPel                    : No
    Format settings, GMC                     : No warppoints
    Format settings, Matrix                  : Default (MPEG)
    Codec ID                                 : XVID
    Codec ID/Hint                            : XviD
    Duration                                 : 1h 36mn
    Bit rate                                 : 1 944 Kbps
    Width                                    : 720 pixels
    Height                                   : 304 pixels
    Display aspect ratio                     : 2.35:1
    Frame rate                               : 23.976 fps
    Color space                              : YUV
    Chroma subsampling                       : 4:2:0
    Bit depth                                : 8 bits
    Scan type                                : Progressive
    Compression mode                         : Lossy
    Bits/(Pixel*Frame)                       : 0.371
    Stream size                              : 1.30 GiB (89%)
    Writing library                          : XviD 1.2.1 (UTC 2008-12-04)

    Audio
    ID                                       : 1
    Format                                   : AC-3
    Format/Info                              : Audio Coding 3
    Mode extension                           : CM (complete main)
    Codec ID                                 : 2000
    Duration                                 : 1h 36mn
    Bit rate mode                            : Constant
    Bit rate                                 : 224 Kbps
    Channel(s)                               : 2 channels
    Channel positions                        : Front: L R
    Sampling rate                            : 48.0 KHz
    Bit depth                                : 16 bits
    Compression mode                         : Lossy
    Stream size                              : 154 MiB (10%)
    Alignment                                : Split accross interleaves
    Interleave, duration                     : 42 ms (1.00 video frame)
    Interleave, preload duration             : 500 ms

    Скриншоты:

    Трейлеры к фильмам [2014]
    © Оформление by Raven pb.wtf



  • Скачать Несвятые через торрент http://i2.imageban.ru/out/2014/04/02/f9dc74bd537125bf299d8b310aa68e3d.jpg Скачать фильм Несвятые через торрент бесплантно в хорошем качестве Описание:Техас, 1970-е годы. Попав в засаду, трое молодых преступников тяжело ранят одного из окруживших их полицейских. Главарь банды Боб ... 10 10 10
    Торрент: Зарегистрирован [2014-04-01 20:29] · скачан: 350 раз
    Статус: √ проверено
    Размер: 1.46 GB
    Как cкачать? Как скачать Несвятые через торрент | UTorrent

    28-11-2019 20:33  

    Отключить всю рекламу на сайте

      Дорогой пользователь! Огромная просьба, поблагодарите релизера, оцените раздачу и оставьте свои комментарий, если Вы скачали Несвятые через торрент бесплатно! Внесите свою лепту в развитие PiratBit!
      Комментировать посты могут только пользователи прошедшие не сложную регистрацию
      Показать сообщения:    

      Несвятые через торрент
      Скачать бесплатно Несвятые
      Несвятые скачать торрент
      Несвятые смотреть онлайн
      Cкачать фильм Несвятые бесплатно
      Несвятые скачать торрент в хорошем качестве
      Несвятые смотреть онлайн бесплатно в хорошем качестве


      Вы не можете начинать темы
      Вы не можете отвечать на сообщения
      Вы не можете редактировать свои сообщения
      Вы не можете удалять свои сообщения
      Вы не можете голосовать в опросах
      Вы не можете прикреплять файлы к сообщениям
      Вы можете скачивать файлы