2 сезон

iTunes

MVO

1

2 сезон

iTunes

iTunes

1 сезон

RePack

30

Новинка

ВАЖНО

ИГРА 18+

pack

RePack

MK11
pack

Легкие деньги

RePack

jed

RePack

fifa19

RePack

RDR2

RePack

NEED FOR SPEED™ PAYBACK

4 сезон

9 сезон

Бесстыжие 9 сезон

Все сериалы

все сериалы на PB.wtf

RePack

FAR CRY 5

Anonymous, доброй ночи, мы не успеваем собрать деньги на оплату серверов за декабрь и январь, помогите нам пожалуйста в это трудное время. В качестве благодарности мы отключим Вам всю рекламу на сайте (укажите свой ник в строку Ваше имя)!

×
  
Magnet ссылка

Зной Явы / Пылающий остров / Java Heat (Конор Эллин / Conor Allyn) [2013, США, боевик, триллер, драма, HDRip,Профессиональный Дубляж [студия "Пифагор"] pb.wtf

Зной Явы через торрент pb.wtf

Размер: 1.46 GB | Добавлен: 6 лет 9 мес. назад | Торрент скачан:1234 раза
Скачать  

01-04-2014 22:06 Зной Явы Скачать торрент  

Зной Явы / Пылающий остров / Java Heat

«Всё не так, как кажется»

  • Год выпуска: 2013
  • Страна: США
  • Жанр: боевик, триллер, драма, криминал

  • Продолжительность: 01:43:46
  • Перевод: Профессиональный Дубляж [студия "Пифагор"]

  • Субтитры: Нет
  • Режиссер: Конор Эллин / Conor Allyn
  • В ролях:

    Келлан Латс (Jake Wilde), Арио Баю (Lieutenant Hashim), Микки Рурк (Malik), Атика Хасихолан (Sultana), Ули Аульяни (Rani), Франс Тамбуан (General Sriyono), Тио Пакусодево (Vizier), Майк Мульярдо (Achmed), Рио Деванто (Anton), Астри Нурдин (Vitria), Т. Рифну Викана (Captain Agus), Руди Вовор (Sultan)
    • Описание:
      Молодой американец Джейк приезжает в Юго-Восточную Азию, чтобы сражаться с исламскими террористами. В компании с местным детективом-мусульманином он преследует изобретательного вора, который специально организовывает взрывы и похищения, чтобы осуществлять кражи драгоценностей, произведений искусства и даже принцессы.

    Мировая премьера:11 апреля 2013

    • Качество: HDRip
    • Формат: AVI
    • Видео кодек: XviD
    • Аудио кодек:AC3
    • Видео: XviD, 720x304 (2.35:1), 1808 kbps, 23,976 fps, 0,345 bpp
    • Аудио: AC3 / 2.0 / 48 kHz / 192 kbps / 16 bit


    Код:

    General
    Complete name                            : D:ТорентыPilauschiy.Ostrov.2013.D.HDRip.1.46Gb.avi
    Format                                   : AVI
    Format/Info                              : Audio Video Interleave
    File size                                : 1.46 GiB
    Duration                                 : 1h 43mn
    Overall bit rate                         : 2 010 Kbps
    Writing application                      : VirtualDubMod 1.5.10.2 (build 2540/release)
    Writing library                          : VirtualDubMod build 2540/release

    Video
    ID                                       : 0
    Format                                   : MPEG-4 Visual
    Format profile                           : Advanced Simple@L5
    Format settings, BVOP                    : 2
    Format settings, QPel                    : No
    Format settings, GMC                     : No warppoints
    Format settings, Matrix                  : Custom
    Codec ID                                 : XVID
    Codec ID/Hint                            : XviD
    Duration                                 : 1h 43mn
    Bit rate                                 : 1 809 Kbps
    Width                                    : 720 pixels
    Height                                   : 304 pixels
    Display aspect ratio                     : 2.35:1
    Frame rate                               : 23.976 fps
    Color space                              : YUV
    Chroma subsampling                       : 4:2:0
    Bit depth                                : 8 bits
    Scan type                                : Progressive
    Compression mode                         : Lossy
    Bits/(Pixel*Frame)                       : 0.345
    Stream size                              : 1.31 GiB (90%)
    Writing library                          : XviD 1.2.1 (UTC 2008-12-04)

    Audio
    ID                                       : 1
    Format                                   : AC-3
    Format/Info                              : Audio Coding 3
    Mode extension                           : CM (complete main)
    Codec ID                                 : 2000
    Duration                                 : 1h 43mn
    Bit rate mode                            : Constant
    Bit rate                                 : 192 Kbps
    Channel(s)                               : 2 channels
    Channel positions                        : Front: L R
    Sampling rate                            : 48.0 KHz
    Bit depth                                : 16 bits
    Compression mode                         : Lossy
    Stream size                              : 143 MiB (10%)
    Alignment                                : Split accross interleaves
    Interleave, duration                     : 42 ms (1.00 video frame)
    Interleave, preload duration             : 500 ms

    Скриншоты:

    Каталог Новинок(Фильмы-трейлеры, Игры, Сериалы, Мультфильмы)
    © Оформление by Raven pb.wtf



  • Скачать Зной Явы через торрент https://pic.kartinco.top/images/6/tavim.jpg Скачать фильм Зной Явы через торрент бесплантно в хорошем качестве Описание:Молодой американец Джейк приезжает в Юго-Восточную Азию, чтобы сражаться с исламскими террористами. В компании с местным ... 9.9 10 29
    Торрент: Зарегистрирован [2014-04-01 22:06] · скачан: 1 234 раз
    Статус: √ проверено
    Размер: 1.46 GB
    Как cкачать? Как скачать Зной Явы через торрент | UTorrent

    % Раздел Тема Автор DL S | L
    Фильмы [HD 720p, 1080p] (Хороший звук DUB, MVO) [ 5.61 GB ] Зной Явы / Пылающий остров / Java Heat [2013 BDRip 720p [студия "Пифагор"] Ворон Скачать
    1 | 0


    Последний раз редактировалось: Ворон (2014-04-01 22:11), всего редактировалось 2 раз(а)

    28-11-2019 20:33  

    Отключить всю рекламу на сайте

    01-04-2014 22:09 Зной Явы Скачать торрент  

    На постеры актер смахивает на Сэм Уортингтон http://www.kinopoisk.ru/name/17733/ даже очень)))pb.wtf



    02-04-2014 02:20 Зной Явы Скачать торрент  

    Raven писал(а):

    На постеры актер смахивает на Сэм Уортингтон http://www.kinopoisk.ru/name/17733/ даже очень)))

    Больше похож на форварда Лос-Анджелес Клипперс- Блейка Гриффина yespb.wtf



      Дорогой пользователь! Огромная просьба, поблагодарите релизера, оцените раздачу и оставьте свои комментарий, если Вы скачали Зной Явы через торрент бесплатно! Внесите свою лепту в развитие PiratBit!
      Комментировать посты могут только пользователи прошедшие не сложную регистрацию
      Показать сообщения:    

      Зной Явы через торрент
      Скачать бесплатно Зной Явы
      Зной Явы скачать торрент
      Зной Явы смотреть онлайн
      Cкачать фильм Зной Явы бесплатно
      Зной Явы скачать торрент в хорошем качестве
      Зной Явы смотреть онлайн бесплатно в хорошем качестве


      Вы не можете начинать темы
      Вы не можете отвечать на сообщения
      Вы не можете редактировать свои сообщения
      Вы не можете удалять свои сообщения
      Вы не можете голосовать в опросах
      Вы не можете прикреплять файлы к сообщениям
      Вы можете скачивать файлы