Ссылка на приватное зеркало нашего сайта всего за 1$. Внимание количество ограничено!!!

2 сезон

iTunes

1 сезон

1

iTunes

iTunes

iTunes

1 сезон

RePack

30

ИГРА 18+

pack

ВАЖНО

!!Акция!!

Alien_RageХит недели

RePack

MK11
pack

Забери бонус

RePack

jed

!!Акция!!

Alien_Rage

RePack

fifa19

RePack

Assassins Creed: Odyssey

RePack

NEED FOR SPEED™ PAYBACK

4 сезон

9 сезон

Бесстыжие 9 сезон

Все сериалы

все сериалы на PB.wtf

RePack

FAR CRY 5
  

Зной Явы / Пылающий остров / Java Heat (Конор Эллин / Conor Allyn) [2013, США, боевик, триллер, драма, BDRip 720p,Профессиональный Дубляж [студия "Пифагор"] pb.wtf

Зной Явы через торрент pb.wtf

Размер: 5.61 GB | Добавлен: 6 лет 6 мес. назад | Торрент скачан:408 раз
Скачать  

01-04-2014 22:16 Зной Явы Скачать торрент  

Пылающий остров / Java Heat

«Всё не так, как кажется»

  • Год выпуска: 2013
  • Страна: США
  • Жанр: боевик, триллер, драма, криминал

  • Продолжительность: 01:43:46
  • Перевод: Профессиональный Дубляж [студия "Пифагор" / «TV1000 Megahit HD»]

  • Субтитры: Russian [kon2011], English
  • Режиссер: Конор Эллин / Conor Allyn
  • В ролях:

    Келлан Латс (Jake Wilde), Арио Баю (Lieutenant Hashim), Микки Рурк (Malik), Атика Хасихолан (Sultana), Ули Аульяни (Rani), Франс Тамбуан (General Sriyono), Тио Пакусодево (Vizier), Майк Мульярдо (Achmed), Рио Деванто (Anton), Астри Нурдин (Vitria), Т. Рифну Викана (Captain Agus), Руди Вовор (Sultan)
    • Описание:
      Молодой американец Джейк приезжает в Юго-Восточную Азию, чтобы сражаться с исламскими террористами. В компании с местным детективом-мусульманином он преследует изобретательного вора, который специально организовывает взрывы и похищения, чтобы осуществлять кражи драгоценностей, произведений искусства и даже принцессы.

    Мировая премьера:11 апреля 2013

    • Качество: BDRip 720p [HDWing]
    • Формат: MKV
    • Видео кодек: AVC
    • Аудио кодек:DTS / AC3
    • Видео: AVC, 1280x544 (2.35:1), 6347 kbps, 23,976 fps, 0,380 bpp
    • Аудио №1: русский / AC3 / 2.0 / 48 kHz / 192 kbps / 16 bit || [студия "Пифагор" / «TV1000 Megahit HD»]
    • Аудио №2: русский / AC3 / 5.1 / 48 kHz / 448 kbps / 16 bit || [den904]
    • Аудио №3: английский / DTS / 5.1 / 48 kHz / 755 kbps / 16 bit


    Код:

    General
    Unique ID                                : 180733192296065418617393488874270725061 (0x87F7F25AD9BB89078E724973F03D93C5)
    Complete name                            : D:ТорентыJava.Heat.2013.Blu.Ray.720p..mkv
    Format                                   : Matroska
    Format version                           : Version 4 / Version 2
    File size                                : 5.61 GiB
    Duration                                 : 1h 43mn
    Overall bit rate                         : 7 744 Kbps
    Movie name                               : Release Group
    Encoded date                             : UTC 2014-03-31 21:31:39
    Writing application                      : mkvmerge v6.8.0 ('Theme for Great Cities') 64bit built on Mar  2 2014 21:34:26
    Writing library                          : libebml v1.3.0 + libmatroska v1.4.1

    Video
    ID                                       : 1
    Format                                   : AVC
    Format/Info                              : Advanced Video Codec
    Format profile                           : High@L4.1
    Format settings, CABAC                   : Yes
    Format settings, ReFrames                : 12 frames
    Codec ID                                 : V_MPEG4/ISO/AVC
    Duration                                 : 1h 43mn
    Bit rate                                 : 6 347 Kbps
    Width                                    : 1 280 pixels
    Height                                   : 544 pixels
    Display aspect ratio                     : 2.35:1
    Frame rate                               : 23.976 fps
    Color space                              : YUV
    Chroma subsampling                       : 4:2:0
    Bit depth                                : 8 bits
    Scan type                                : Progressive
    Bits/(Pixel*Frame)                       : 0.380
    Stream size                              : 4.49 GiB (80%)
    Title                                    : Release Group CINEMANIA
    Writing library                          : x264 core 130 r2273 b3065e6
    Encoding settings                        : cabac=1 / ref=12 / deblock=1:-3:-3 / analyse=0x3:0x133 / me=umh / subme=10 / psy=1 / psy_rd=1.00:0.10 / mixed_ref=1 / me_range=48 / chroma_me=1 / trellis=2 / 8x8dct=1 / cqm=0 / deadzone=21,11 / fast_pskip=0 / chroma_qp_offset=-3 / threads=12 / lookahead_threads=1 / sliced_threads=0 / nr=0 / decimate=0 / interlaced=0 / bluray_compat=0 / constrained_intra=0 / bframes=8 / b_pyramid=2 / b_adapt=2 / b_bias=0 / direct=3 / weightb=1 / open_gop=0 / weightp=2 / keyint=360 / keyint_min=2 / scenecut=40 / intra_refresh=0 / rc_lookahead=60 / rc=2pass / mbtree=1 / bitrate=6347 / ratetol=1.0 / qcomp=0.70 / qpmin=0 / qpmax=69 / qpstep=4 / cplxblur=20.0 / qblur=0.5 / vbv_maxrate=50000 / vbv_bufsize=30000 / nal_hrd=none / ip_ratio=1.10 / aq=2:1.00
    Default                                  : Yes
    Forced                                   : No

    Audio #1
    ID                                       : 2
    Format                                   : AC-3
    Format/Info                              : Audio Coding 3
    Mode extension                           : CM (complete main)
    Codec ID                                 : A_AC3
    Duration                                 : 1h 43mn
    Bit rate mode                            : Constant
    Bit rate                                 : 192 Kbps
    Channel(s)                               : 2 channels
    Channel positions                        : Front: L R
    Sampling rate                            : 48.0 KHz
    Bit depth                                : 16 bits
    Compression mode                         : Lossy
    Stream size                              : 143 MiB (2%)
    Title                                    : Дубляж
    Language                                 : Russian
    Default                                  : Yes
    Forced                                   : Yes

    Audio #2
    ID                                       : 3
    Format                                   : AC-3
    Format/Info                              : Audio Coding 3
    Mode extension                           : CM (complete main)
    Codec ID                                 : A_AC3
    Duration                                 : 1h 43mn
    Bit rate mode                            : Constant
    Bit rate                                 : 448 Kbps
    Channel(s)                               : 6 channels
    Channel positions                        : Front: L C R, Side: L R, LFE
    Sampling rate                            : 48.0 KHz
    Bit depth                                : 16 bits
    Compression mode                         : Lossy
    Stream size                              : 333 MiB (6%)
    Title                                    : den904
    Language                                 : Russian
    Default                                  : No
    Forced                                   : No

    Audio #3
    ID                                       : 4
    Format                                   : DTS
    Format/Info                              : Digital Theater Systems
    Codec ID                                 : A_DTS
    Duration                                 : 1h 43mn
    Bit rate mode                            : Constant
    Bit rate                                 : 755 Kbps
    Channel(s)                               : 6 channels
    Channel positions                        : Front: L C R, Side: L R, LFE
    Sampling rate                            : 48.0 KHz
    Bit depth                                : 16 bits
    Compression mode                         : Lossy
    Stream size                              : 560 MiB (10%)
    Language                                 : English
    Default                                  : No
    Forced                                   : No

    Text #1
    ID                                       : 5
    Format                                   : UTF-8
    Codec ID                                 : S_TEXT/UTF8
    Codec ID/Info                            : UTF-8 Plain Text
    Title                                    : kon2011
    Language                                 : Russian
    Default                                  : No
    Forced                                   : No

    Text #2
    ID                                       : 6
    Format                                   : UTF-8
    Codec ID                                 : S_TEXT/UTF8
    Codec ID/Info                            : UTF-8 Plain Text
    Language                                 : English
    Default                                  : No
    Forced                                   : No

    Menu
    00:00:00.000                             : en:00:00:00.000
    00:00:58.267                             : en:00:00:58.267
    00:10:54.237                             : en:00:10:54.237
    00:18:57.636                             : en:00:18:57.636
    00:31:08.158                             : en:00:31:08.158
    00:41:59.934                             : en:00:41:59.934
    00:50:22.937                             : en:00:50:22.937
    01:00:12.943                             : en:01:00:12.943
    01:09:59.320                             : en:01:09:59.320
    01:21:57.621                             : en:01:21:57.621
    01:35:30.308                             : en:01:35:30.308
    01:38:19.769                             : en:01:38:19.769

    Скриншоты:

    Каталог Новинок (Фильмы-трейлеры, Игры, Сериалы, Мультфильмы)
    © Оформление by Raven pb.wtf



  • Скачать Зной Явы через торрент http://i3.imageban.ru/out/2014/04/02/a83a7dd7ae033f9eaae9fbd05b40d8db.jpg Скачать фильм Зной Явы через торрент бесплантно в хорошем качестве Описание:Молодой американец Джейк приезжает в Юго-Восточную Азию, чтобы сражаться с исламскими террористами. В компании с местным ... 9.3 10 23
    Info! Золотая раздача, скачанное не засчитывается.
    Торрент: Зарегистрирован [2014-04-01 22:16] · скачан: 408 раз
    Статус: √ проверено
    Размер: 5.61 GB
    Как cкачать? Как скачать Зной Явы через торрент | qTorrent

    % Раздел Тема Автор DL S | L
    Фильмы 2013 [DVDrip, WEB-DLRip, HDrip] [ 1.46 GB ] Зной Явы / Пылающий остров / Java Heat [2013 HDRip [студия "Пифагор"] Ворон Скачать
    1 | 0

    28-11-2019 20:33  

    Отключить всю рекламу на сайте

    15-06-2014 12:40 Зной Явы Скачать торрент  

    Филь - отстой. Набор кадров. Тупая сюжетная линия.pb.wtf



      Дорогой пользователь! Огромная просьба, поблагодарите релизера, оцените раздачу и оставьте свои комментарий, если Вы скачали Зной Явы через торрент бесплатно! Внесите свою лепту в развитие PiratBit!
      Комментировать посты могут только пользователи прошедшие не сложную регистрацию
      Показать сообщения:    

      Зной Явы через торрент
      Скачать бесплатно Зной Явы
      Зной Явы скачать торрент
      Зной Явы смотреть онлайн
      Cкачать фильм Зной Явы бесплатно
      Зной Явы скачать торрент в хорошем качестве
      Зной Явы смотреть онлайн бесплатно в хорошем качестве


      Вы не можете начинать темы
      Вы не можете отвечать на сообщения
      Вы не можете редактировать свои сообщения
      Вы не можете удалять свои сообщения
      Вы не можете голосовать в опросах
      Вы не можете прикреплять файлы к сообщениям
      Вы можете скачивать файлы