Ссылка на приватное зеркало нашего сайта всего за 1$. Внимание количество ограничено!!!

2 сезон

iTunes

1 сезон

1

2 сезон

2 сезон

iTunes

1 сезон

RePack

30

Ultimate

ВАЖНО

ИГРА 18+

pack

RePack

MK11
pack

Забери бонус

RePack

jed

!!Акция!!

Alien_Rage

RePack

fifa19

RePack

Assassins Creed: Odyssey

RePack

NEED FOR SPEED™ PAYBACK

4 сезон

9 сезон

Бесстыжие 9 сезон

Все сериалы

все сериалы на PB.wtf

RePack

FAR CRY 5
  

Не пойман – не вор / Inside Man (Спайк Ли) [2006, триллер, драма, криминал, HDRip-AVC] DUB [Лицензия] от R.G. PiratFilms pb.wtf

Не пойман – не вор через торрент pb.wtf

Размер: 2.18 GB | Добавлен: 6 лет 8 мес. назад | Торрент скачан:223 раза
Скачать  

02-04-2014 06:31 Не пойман – не вор Скачать торрент  

Не пойман – не вор / Inside Man
«Хочешь ограбить банк - спроси у нас как»



Год выпуска: 2006
Страна: США
Жанр: триллер, драма, криминал
Длительность: 02:08:43
Перевод: Профессиональный (Дубляж) [Лицензия]

Режиссер: Спайк Ли

В ролях: Дензел Вашингтон, Клайв Оуэн, Джоди Фостер, Кристофер Пламмер, Уиллем Дефо, Чиветель Эджиофор, Карлос Андрес Гомез, Ким Директор, Джеймс Рэнсон, Берни Рейчел

Описание: История крутого полицейского, детектива Фрезьера, который сталкивается «на узкой дорожке» с хитрым грабителем банков Долтоном. Их противостояние выливается в напряженную драму с захватом заложников.

По мере того, как развивается эта игра в «кошки-мышки», на горизонте появляется еще одна загадочная фигура — брокер Мадалина, роль которой в разворачивающихся событиях остается до поры до времени совершенно непонятной. Мадалина вносит еще больше хаоса и нестабильности в и без того чрезвычайно хрупкую ситуацию…


|

Качество: HDRip-AVC (Rip by Phoenix)
Исходник: BDRip 1080p
Формат: MKV
Видео кодек: H.264
Аудио кодек: AC3
Видео: H.264, 1024*432, 23,976 кадр/сек, 1975 Кбит/сек, 0.186 Бит/(Пиксели*Кадры)
Аудио: AC3, 448 Кбит/сек, 6 каналов, 48,0 КГц

Код:

x264 [info]: frame I:1493  Avg QP:15.92  size: 58181  PSNR Mean Y:46.85 U:50.68 V:50.88 Avg:47.79 Global:47.50
x264 [info]: frame P:42103 Avg QP:18.66  size: 17925  PSNR Mean Y:44.55 U:49.30 V:49.29 Avg:45.61 Global:45.12
x264 [info]: frame B:141417 Avg QP:20.08  size:  7514  PSNR Mean Y:43.81 U:49.35 V:49.38 Avg:44.97 Global:44.45
x264 [info]: consecutive B-frames:  3.0%  3.7%  7.9% 23.4% 16.1% 29.0%  6.9%  7.7%  2.3%

Код:

Общее
Уникальный идентификатор         : 183549502553857920311139233399906174305 (0x8A16592BCCCFB64C8667A0AF28C30561)
Полное имя                       : G:VideoRip by PhoenixInside Man Rip by Phoenix.mkv
Формат                           : Matroska
Размер файла                     : 2,18 Гбайт
Продолжительность                : 2 ч. 8 м.
Общий поток                      : 2422 Кбит/сек
Дата кодирования                 : UTC 2014-04-01 22:17:47
Программа кодирования            : mkvmerge v6.5.0 ('Isn't she lovely') built on Oct 20 2013 12:50:05
Библиотека кодирования           : libebml v1.3.0 + libmatroska v1.4.1

Видео
Идентификатор                    : 1
Формат                           : AVC
Формат/Информация                : Advanced Video Codec
Профиль формата                  : High@L4.1
Параметр CABAC формата           : Да
Параметр ReFrames формата        : 12 кадры
Идентификатор кодека             : V_MPEG4/ISO/AVC
Продолжительность                : 2 ч. 8 м.
Битрейт                          : 1975 Кбит/сек
Ширина                           : 1024 пикс.
Высота                           : 432 пикс.
Соотношение сторон               : 2,35:1
Частота кадров                   : 23,976 кадр/сек
Цветовое пространство            : YUV
Подвыборка цветности             : 4:2:0
Битовая глубина                  : 8 бит
Тип развёртки                    : Прогрессивная
Бит/(Пиксели*Кадры)              : 0.186
Размер потока                    : 1,73 Гбайт (80%)
Заголовок                        : Rip by Phoenix
Библиотека кодирования           : x264 core 138 r2358 9e941d1
Настройки программы              : cabac=1 / ref=12 / deblock=1:-3:-3 / analyse=0x3:0x113 / me=umh / subme=9 / psy=1 / psy_rd=1.00:0.00 / mixed_ref=1 / me_range=32 / chroma_me=1 / trellis=2 / 8x8dct=1 / cqm=0 / deadzone=21,11 / fast_pskip=1 / chroma_qp_offset=-2 / threads=4 / lookahead_threads=1 / sliced_threads=0 / nr=0 / decimate=1 / interlaced=0 / bluray_compat=0 / constrained_intra=0 / bframes=8 / b_pyramid=2 / b_adapt=2 / b_bias=0 / direct=1 / weightb=1 / open_gop=0 / weightp=2 / keyint=240 / keyint_min=23 / scenecut=40 / intra_refresh=0 / rc_lookahead=40 / rc=2pass / mbtree=1 / bitrate=1975 / ratetol=1.0 / qcomp=0.75 / qpmin=0 / qpmax=69 / qpstep=4 / cplxblur=20.0 / qblur=0.5 / ip_ratio=1.40 / aq=1:1.00
Язык                             : English

Аудио
Идентификатор                    : 2
Формат                           : AC-3
Формат/Информация                : Audio Coding 3
Расширение режима                : CM (complete main)
Идентификатор кодека             : A_AC3
Продолжительность                : 2 ч. 8 м.
Вид битрейта                     : Постоянный
Битрейт                          : 448 Кбит/сек
Канал(ы)                         : 6 канала(ов)
Расположение каналов             : Front: L C R, Side: L R, LFE
Частота                          : 48,0 КГц
Битовая глубина                  : 16 бит
Метод сжатия                     : С потерями
Размер потока                    : 413 Мбайт (18%)
Заголовок                        : Дубляж
Язык                             : Russian

pb.wtf



Скачать Не пойман – не вор через торрент http://pic.kartinco.top/images/6/kmbjp.jpg Скачать фильм Не пойман – не вор через торрент бесплантно в хорошем качестве Описание: История крутого полицейского, детектива Фрезьера, который сталкивается «на узкой дорожке» с хитрым грабителем банков Долтоном. Их ... 10 10 13
Info! Золотая раздача, скачанное не засчитывается.
Торрент: Зарегистрирован [2014-04-02 06:31] · скачан: 223 раз
Статус: √ проверено
Размер: 2.18 GB
Как cкачать? Как скачать Не пойман – не вор через торрент | qTorrent

28-11-2019 20:33  

Отключить всю рекламу на сайте

02-04-2014 23:31 Не пойман – не вор Скачать торрент  

Спасибо за фильм.pb.wtf



    Дорогой пользователь! Огромная просьба, поблагодарите релизера, оцените раздачу и оставьте свои комментарий, если Вы скачали Не пойман – не вор через торрент бесплатно! Внесите свою лепту в развитие PiratBit!
    Комментировать посты могут только пользователи прошедшие не сложную регистрацию
    Показать сообщения:    

    Не пойман – не вор через торрент
    Скачать бесплатно Не пойман – не вор
    Не пойман – не вор скачать торрент
    Не пойман – не вор смотреть онлайн
    Cкачать фильм Не пойман – не вор бесплатно
    Не пойман – не вор скачать торрент в хорошем качестве
    Не пойман – не вор смотреть онлайн бесплатно в хорошем качестве


    Вы не можете начинать темы
    Вы не можете отвечать на сообщения
    Вы не можете редактировать свои сообщения
    Вы не можете удалять свои сообщения
    Вы не можете голосовать в опросах
    Вы не можете прикреплять файлы к сообщениям
    Вы можете скачивать файлы