Ссылка на приватное зеркало нашего сайта всего за 1$. Внимание количество ограничено!!!

2 сезон

iTunes

1 сезон

1

iTunes

iTunes

iTunes

1 сезон

RePack

30

ИГРА 18+

pack

ВАЖНО

!!Акция!!

Alien_RageХит недели

RePack

MK11
pack

Забери бонус

RePack

jed

!!Акция!!

Alien_Rage

RePack

fifa19

RePack

Assassins Creed: Odyssey

RePack

NEED FOR SPEED™ PAYBACK

4 сезон

9 сезон

Бесстыжие 9 сезон

Все сериалы

все сериалы на PB.wtf

RePack

FAR CRY 5
  

Иван Царевич и Серый Волк: Дилогия (Владимир Торопчин) [2011,2013, мультфильм, фэнтези, комедия, приключения, семейный, BDRip-AVC] от R.G. PiratFilms pb.wtf

Иван Царевич и Серый Волк: Дилогия через торрент pb.wtf

Размер: 2.92 GB | Добавлен: 6 лет 6 мес. назад | Торрент скачан:216 раз
Скачать  

02-04-2014 09:03 Иван Царевич и Серый Волк: Дилогия Скачать торрент  

Иван Царевич и Серый Волк
«Основано на нереальных событиях»



Год выпуска: 2011
Страна: Россия
Жанр: мультфильм, фэнтези, комедия, приключения, семейный
Длительность: 01:26:03
Перевод: Не требуется

Режиссер: Владимир Торопчин

В ролях: Никита Ефремов, Татьяна Бунина, Артур Смольянинов, Иван Охлобыстин, Виктор Сухоруков, Сергей Гармаш, Михаил Боярский, Сергей Русскин, Александр Боярский, Лия Ахеджакова

Описание: Увлекательная история от создателей богатырской трилогии, в которой героев русских народных сказок ждут новые приключения, опасности и забавные ситуации.



Качество: BDRip-AVC (Rip by Demonessa)
Исходник: BD-Remux
Формат: MKV
Видео кодек: H.264
Аудио кодек: AC3
Видео: H.264, 1152*648, 23,976 кадр/сек, 1978 Кбит/сек, 0.111 Бит/(Пиксели*Кадры)
Аудио: AC3, 448 Кбит/сек, 6 каналов, 48,0 КГц

Код:

x264 [info]: frame I:1458  Avg QP:10.97  size:151667  PSNR Mean Y:52.58 U:54.79 V:54.80 Avg:53.11 Global:52.85
x264 [info]: frame P:33013 Avg QP:13.09  size: 19112  PSNR Mean Y:51.06 U:53.95 V:53.98 Avg:51.58 Global:51.24
x264 [info]: frame B:89321 Avg QP:16.37  size:  4750  PSNR Mean Y:50.96 U:54.14 V:54.16 Avg:51.50 Global:51.09
x264 [info]: consecutive B-frames:  4.7%  4.6% 12.3% 42.7% 18.5%  7.7%  2.7%  1.6%  1.7%  1.3%  2.1%

Код:

Общее
Уникальный идентификатор         : 236268525206580446593997984109892827513 (0xB1BFA9AAB713AC62B4FAD823F7097979)
Полное имя                       : G:VideoRip by DemonessaИван Царевич и Серый Волк (Дилогия)Иван Царевич и Серый Волк Rip by Demonessa.mkv
Формат                           : Matroska
Размер файла                     : 1,46 Гбайт
Продолжительность                : 1 ч. 26 м.
Общий поток                      : 2427 Кбит/сек
Дата кодирования                 : UTC 2014-03-26 07:23:55
Программа кодирования            : mkvmerge v6.5.0 ('Isn't she lovely') built on Oct 20 2013 12:50:05
Библиотека кодирования           : libebml v1.3.0 + libmatroska v1.4.1

Видео
Идентификатор                    : 1
Формат                           : AVC
Формат/Информация                : Advanced Video Codec
Профиль формата                  : High@L4.1
Параметр CABAC формата           : Да
Параметр ReFrames формата        : 11 кадры
Идентификатор кодека             : V_MPEG4/ISO/AVC
Продолжительность                : 1 ч. 26 м.
Битрейт                          : 1978 Кбит/сек
Ширина                           : 1152 пикс.
Высота                           : 648 пикс.
Соотношение сторон               : 16:9
Частота кадров                   : 23,976 кадр/сек
Цветовое пространство            : YUV
Подвыборка цветности             : 4:2:0
Битовая глубина                  : 8 бит
Тип развёртки                    : Прогрессивная
Бит/(Пиксели*Кадры)              : 0.111
Размер потока                    : 1,16 Гбайт (80%)
Заголовок                        : Rip by Demonessa
Библиотека кодирования           : x264 core 138 r2358 9e941d1
Настройки программы              : cabac=1 / ref=11 / deblock=1:-2:-1 / analyse=0x3:0x113 / me=umh / subme=9 / psy=1 / psy_rd=1.00:0.00 / mixed_ref=1 / me_range=48 / chroma_me=1 / trellis=2 / 8x8dct=1 / cqm=0 / deadzone=21,11 / fast_pskip=1 / chroma_qp_offset=-2 / threads=4 / lookahead_threads=1 / sliced_threads=0 / nr=0 / decimate=1 / interlaced=0 / bluray_compat=0 / constrained_intra=0 / bframes=10 / b_pyramid=2 / b_adapt=2 / b_bias=0 / direct=1 / weightb=1 / open_gop=0 / weightp=2 / keyint=240 / keyint_min=23 / scenecut=40 / intra_refresh=0 / rc_lookahead=40 / rc=2pass / mbtree=1 / bitrate=1978 / ratetol=1.0 / qcomp=0.75 / qpmin=10 / qpmax=51 / qpstep=4 / cplxblur=20.0 / qblur=0.5 / ip_ratio=1.40 / aq=1:1.00
Язык                             : English

Аудио
Идентификатор                    : 2
Формат                           : AC-3
Формат/Информация                : Audio Coding 3
Расширение режима                : CM (complete main)
Идентификатор кодека             : A_AC3
Продолжительность                : 1 ч. 26 м.
Вид битрейта                     : Постоянный
Битрейт                          : 448 Кбит/сек
Канал(ы)                         : 6 канала(ов)
Расположение каналов             : Front: L C R, Side: L R, LFE
Частота                          : 48,0 КГц
Битовая глубина                  : 16 бит
Метод сжатия                     : С потерями
Размер потока                    : 276 Мбайт (18%)
Язык                             : Russian




Иван Царевич и Серый Волк 2
«Любимые герои, новые приключения»



Год выпуска: 2013
Страна: Россия
Жанр: мультфильм, приключения, семейный, фэнтези
Длительность: 01:12:37
Перевод: Не требуется

Режиссер: Владимир Торопчин

В ролях: Никита Ефремов, Татьяна Бунина, Иван Охлобыстин, Михаил Боярский, Ирина Рахманова, Александр Боярский

Описание: В Тридевятом царстве, где живут наши герои — тишь, да благодать. Иван женился на Василисе, и «жили они долго и счастливо», да не тут-то было. Иван целыми днями пропадает с Волком на службе — укрепляет рубежи и оборонную мощь, мечтает перевести стрелки часов на семь часов назад, чтобы меньше спать, и больше работать. А Василисе — скучно, как всем девушкам, ей хочется романтики, ну, такой, как в сказках. И тогда она решает организовать свое похищение… Однако, когда такое бывало, что в сказках все получалось так, как задумывалось?



Качество: BDRip-AVC (Rip by Demonessa)
Исходник: BD-Remux
Формат: MKV
Видео кодек: H.264
Аудио кодек: AC3
Видео: H.264, 1152*648, 23,976 кадр/сек, 2426 Кбит/сек, 0.135 Бит/(Пиксели*Кадры)
Аудио: AC3, 448 Кбит/сек, 6 каналов, 48,0 КГц

Код:

x264 [info]: frame I:1225  Avg QP:10.86  size:143050  PSNR Mean Y:53.19 U:55.60 V:55.56 Avg:53.73 Global:53.46
x264 [info]: frame P:28753 Avg QP:12.39  size: 22695  PSNR Mean Y:51.43 U:54.61 V:54.58 Avg:51.96 Global:51.49
x264 [info]: frame B:74609 Avg QP:14.78  size:  6612  PSNR Mean Y:51.20 U:54.68 V:54.63 Avg:51.75 Global:51.19
x264 [info]: consecutive B-frames:  5.3%  6.0% 10.0% 44.9% 14.8% 12.3%  1.9%  1.4%  0.8%  1.9%  0.8%

Код:

Общее
Уникальный идентификатор         : 200851362587464327013345343948977260453 (0x971A90BB4A3901F1A6E8F5B51292C7A5)
Полное имя                       : G:VideoRip by DemonessaИван Царевич и Серый Волк (Дилогия)Иван Царевич и Серый Волк 2 Rip by Demonessa.mkv
Формат                           : Matroska
Размер файла                     : 1,46 Гбайт
Продолжительность                : 1 ч. 12 м.
Общий поток                      : 2875 Кбит/сек
Дата кодирования                 : UTC 2014-04-02 07:58:47
Программа кодирования            : mkvmerge v6.5.0 ('Isn't she lovely') built on Oct 20 2013 12:50:05
Библиотека кодирования           : libebml v1.3.0 + libmatroska v1.4.1

Видео
Идентификатор                    : 1
Формат                           : AVC
Формат/Информация                : Advanced Video Codec
Профиль формата                  : High@L4.1
Параметр CABAC формата           : Да
Параметр ReFrames формата        : 11 кадры
Идентификатор кодека             : V_MPEG4/ISO/AVC
Продолжительность                : 1 ч. 12 м.
Битрейт                          : 2426 Кбит/сек
Ширина                           : 1152 пикс.
Высота                           : 648 пикс.
Соотношение сторон               : 16:9
Частота кадров                   : 24,000 кадр/сек
Цветовое пространство            : YUV
Подвыборка цветности             : 4:2:0
Битовая глубина                  : 8 бит
Тип развёртки                    : Прогрессивная
Бит/(Пиксели*Кадры)              : 0.135
Размер потока                    : 1,20 Гбайт (82%)
Заголовок                        : Rip by Demonessa
Библиотека кодирования           : x264 core 138 r2358 9e941d1
Настройки программы              : cabac=1 / ref=11 / deblock=1:-2:-1 / analyse=0x3:0x113 / me=umh / subme=9 / psy=1 / psy_rd=1.00:0.00 / mixed_ref=1 / me_range=32 / chroma_me=1 / trellis=2 / 8x8dct=1 / cqm=0 / deadzone=21,11 / fast_pskip=1 / chroma_qp_offset=-2 / threads=4 / lookahead_threads=1 / sliced_threads=0 / nr=0 / decimate=1 / interlaced=0 / bluray_compat=0 / constrained_intra=0 / bframes=10 / b_pyramid=2 / b_adapt=2 / b_bias=0 / direct=1 / weightb=1 / open_gop=0 / weightp=2 / keyint=240 / keyint_min=24 / scenecut=40 / intra_refresh=0 / rc_lookahead=40 / rc=2pass / mbtree=1 / bitrate=2426 / ratetol=1.0 / qcomp=0.75 / qpmin=10 / qpmax=51 / qpstep=4 / cplxblur=20.0 / qblur=0.5 / ip_ratio=1.40 / aq=1:1.00
Язык                             : English

Аудио
Идентификатор                    : 2
Формат                           : AC-3
Формат/Информация                : Audio Coding 3
Расширение режима                : CM (complete main)
Идентификатор кодека             : A_AC3
Продолжительность                : 1 ч. 12 м.
Вид битрейта                     : Постоянный
Битрейт                          : 448 Кбит/сек
Канал(ы)                         : 6 канала(ов)
Расположение каналов             : Front: L C R, Side: L R, LFE
Частота                          : 48,0 КГц
Битовая глубина                  : 16 бит
Метод сжатия                     : С потерями
Размер потока                    : 233 Мбайт (16%)
Язык                             : Russian

pb.wtf



Скачать Иван Царевич и Серый Волк: Дилогия через торрент http://pic.kartinco.top/images/6/og6pz.jpg Скачать фильм Иван Царевич и Серый Волк: Дилогия через торрент бесплантно в хорошем качестве Описание: Увлекательная история от создателей богатырской трилогии, в которой героев русских народных сказок ждут новые приключения, ... 10 10 12
Info! Золотая раздача, скачанное не засчитывается.
Торрент: Зарегистрирован [2014-04-02 09:03] · скачан: 216 раз
Статус: √ проверено
Размер: 2.92 GB
Как cкачать? Как скачать Иван Царевич и Серый Волк: Дилогия через торрент | qTorrent

28-11-2019 20:33  

Отключить всю рекламу на сайте

02-04-2014 12:08 Иван Царевич и Серый Волк: Дилогия Скачать торрент  

Первый получше былpb.wtf



    Дорогой пользователь! Огромная просьба, поблагодарите релизера, оцените раздачу и оставьте свои комментарий, если Вы скачали Иван Царевич и Серый Волк: Дилогия через торрент бесплатно! Внесите свою лепту в развитие PiratBit!
    Комментировать посты могут только пользователи прошедшие не сложную регистрацию
    Показать сообщения:    

    Иван Царевич и Серый Волк: Дилогия через торрент
    Скачать бесплатно Иван Царевич и Серый Волк: Дилогия
    Иван Царевич и Серый Волк: Дилогия скачать торрент
    Иван Царевич и Серый Волк: Дилогия смотреть онлайн
    Cкачать фильм Иван Царевич и Серый Волк: Дилогия бесплатно
    Иван Царевич и Серый Волк: Дилогия скачать торрент в хорошем качестве
    Иван Царевич и Серый Волк: Дилогия смотреть онлайн бесплатно в хорошем качестве


    Вы не можете начинать темы
    Вы не можете отвечать на сообщения
    Вы не можете редактировать свои сообщения
    Вы не можете удалять свои сообщения
    Вы не можете голосовать в опросах
    Вы не можете прикреплять файлы к сообщениям
    Вы можете скачивать файлы