1 сезон

1 сезон

iTunes

1

КиноПоиск HD

Кинопоиск HD

iTunes

13

1 сезон

RePack

30

Ultimate

ВАЖНО

ИГРА 18+

pack

RePack

MK11
pack

Легкие деньги

RePack

jed

RePack

fifa19

RePack

RDR2

RePack

NEED FOR SPEED™ PAYBACK

4 сезон

9 сезон

Бесстыжие 9 сезон

Все сериалы

все сериалы на PB.wtf

RePack

FAR CRY 5
  
Magnet ссылка

Мария, мать сына Божьего / Maria, Mae do Filho de Deus (Муасир Гоэш / Moacyr Góes) [ 2003 , Бразилия , драма , TVRip, MVO ] pb.wtf

Мария, мать сына Божьего через торрент pb.wtf

Размер: 1.43 GB | Добавлен: 7 лет назад | Торрент скачан:6 раз
Скачать  

02-04-2014 12:38 Мария, мать сына Божьего Скачать торрент  

Мария, мать сына Божьего / Maria, Mae do Filho de DeusГод выпуска:2003
Страна: Бразилия
Жанр: драма
Продолжительность: 01:42:20
Перевод: Профессиональный (многоголосый, закадровый)

Субтитры: Нет
Режиссер: Муасир Гоэш / Moacyr Góes

В ролях:Джованна Антонелли (Maria), Луиджи Баричелли (Jesus Cristo), Ана Беатрис Сиснейрос (Joana), Падре Марсело Росси (играет самого себя), Жозе Вилкер (Pilatos), Хосе Дюмон (Diabo), Эшпедиту Баррейра , Эудженио Бретас, Бруно Кариати ,Эвертон ди Кастро (Joaquim), Режис ди Сори, Марина Элали (Beata)
Описание:
Молодая женщина Мария едет в город, в больницу, за результатами обследования своей семилетней дочери. Девочку она оставляет на попечение местного священника, и тот, чтобы развлечь ребенка, рассказывает маленькой Хуане о матери, посвятившей жизнь своему сыну - Иисусу Христу. Ее тоже звали Мария...
Рейтинг
kinopoisk.ru: 5.923 (33)
imdb.com: 4.10 (126)
Качество: TVRip
Формат: AVI
Видео кодек: XviD
Аудио кодек: MP3
Видео: XviD, 720x432 (1.667), 1796 kbps, 25 fps, 0,231 bpp
Аудио: MP3 / 2.0 / 48 kHz / 192 kbps /© Оформление by ФёдорOFF
General
Complete name : D:раздачиMaria, Mae do Filho de Deus .avi
Format : AVI
Format/Info : Audio Video Interleave
File size : 1.43 GiB
Duration : 1h 42mn
Overall bit rate : 2 002 Kbps

Video
ID : 0
Format : MPEG-4 Visual
Format profile : Advanced Simple@L5
Format settings, BVOP : 2
Format settings, QPel : No
Format settings, GMC : No warppoints
Format settings, Matrix : Default (H.263)
Codec ID : XVID
Codec ID/Hint : XviD
Duration : 1h 42mn
Bit rate : 1 797 Kbps
Width : 720 pixels
Height : 432 pixels
Display aspect ratio : 1.667
Frame rate : 25.000 fps
Color space : YUV
Chroma subsampling : 4:2:0
Bit depth : 8 bits
Scan type : Progressive
Compression mode : Lossy
Bits/(Pixel*Frame) : 0.231
Stream size : 1.28 GiB (90%)
Writing library : XviD 64

Audio
ID : 1
Format : MPEG Audio
Format version : Version 1
Format profile : Layer 3
Codec ID : 55
Codec ID/Hint : MP3
Duration : 1h 42mn
Source duration : 1h 42mn
Bit rate mode : Constant
Bit rate : 192 Kbps
Channel(s) : 2 channels
Sampling rate : 48.0 KHz
Compression mode : Lossy
Stream size : 141 MiB (10%)
Alignment : Split accross interleaves
Interleave, duration : 24 ms (0.60 video frame)
Writing library : LAME3.99
pb.wtf



Скачать Мария, мать сына Божьего через торрент http://i2.imageban.ru/out/2014/04/02/a181f4b4055eb31b683ae3accf91dab1.jpg Скачать фильм Мария, мать сына Божьего через торрент бесплантно в хорошем качестве Описание: Молодая женщина Мария едет в город, в больницу, за результатами обследования своей семилетней дочери. Девочку она оставляет на ... 10 10 3
Info! Золотая раздача, скачанное не засчитывается.
Торрент: Зарегистрирован [2014-04-02 12:38] · скачан: 6 раз
Статус: √ проверено
Размер: 1.43 GB
Как cкачать? Как скачать Мария, мать сына Божьего через торрент | UTorrent

28-11-2019 20:33  

Отключить всю рекламу на сайте

    Дорогой пользователь! Огромная просьба, поблагодарите релизера, оцените раздачу и оставьте свои комментарий, если Вы скачали Мария, мать сына Божьего через торрент бесплатно! Внесите свою лепту в развитие PiratBit!
    Комментировать посты могут только пользователи прошедшие не сложную регистрацию
    Показать сообщения:    

    Мария, мать сына Божьего через торрент
    Скачать бесплатно Мария, мать сына Божьего
    Мария, мать сына Божьего скачать торрент
    Мария, мать сына Божьего смотреть онлайн
    Cкачать фильм Мария, мать сына Божьего бесплатно
    Мария, мать сына Божьего скачать торрент в хорошем качестве
    Мария, мать сына Божьего смотреть онлайн бесплатно в хорошем качестве


    Вы не можете начинать темы
    Вы не можете отвечать на сообщения
    Вы не можете редактировать свои сообщения
    Вы не можете удалять свои сообщения
    Вы не можете голосовать в опросах
    Вы не можете прикреплять файлы к сообщениям
    Вы можете скачивать файлы