Присоединяйтесь к нам в Telegram!, здесь всегда актуальный адрес сайта, оперативная поддержка и многое другое!!

>

5.9

iTunes

7.4

iTunes

9.4

1 сезон

1

7.4

2 сезон

7.2

iTunes

7.3

1 сезон

13

6.1

iTunes

8.3

GOG

30

ULTIMATE

pack

9.9

Лицензия

ВАЖНО

ИГРА 18+

pack

7.3

RePack

MK11

7.7

RePack

jed

7.8

RePack

fifa19

8.5

RePack

RDR2

RePack

NEED FOR SPEED™ PAYBACK

5 сезон

9 сезон

Бесстыжие 9 сезон

Все сериалы

все сериалы на PB.wtf

RePack

FAR CRY 5

Anonymous, добрый день, мы катастрофически не успеваем собрать деньги на оплату серверов, помогите нам пожалуйста 5,10,15р., для нас важна любая помощь . В качестве благодарности мы отключим Вам всю рекламу на сайте (укажите свой ник в строку Ваше имя)!

×
  
Magnet ссылка

Александр Барыкин представляет. Группа Карнавал. 25 лет [2005 г., Рок, поп, DVDRip] pb.wtf

Александр Барыкин представляет. Группа Карнавал. 25 лет через торрент pb.wtf

Размер: 2.05 GB | Добавлен: 7 лет 7 мес. назад | Торрент скачан:109 раз
Смотреть онлайн Александр Барыкин представляет. Группа Карнавал. 25 лет | Скачать    Ребята, помогите собрать деньги на оплату серверов!!!

02-04-2014 17:27 Александр Барыкин представляет. Группа Карнавал. 25 лет Скачать торрент  

Александр Барыкин представляет. Группа Карнавал. 25 летГод выпуска: 2005
Страна: Россия
Жанр: Рок, поп
Продолжительность: 02:57:18
Перевод: Оригинал

В ролях: Александр Барыкин, группа Карнавал и их гости.

Описание: В DVD вошли видеосъёмки концертных выступлений группы «Карнавал» разных лет, в том числе и концертное выступление, посвящённое 25-летию группы, на котором также выступили группы «Браво» и «Моральный кодекс». В DVD также вошли видеозаписи первых (!) телесъёмок таких песен, как «Песня о друге», «Букет», «Аэропорт», «Программа телепередач», а также клипы. Присутствуют интервью с А. Барыкиным об истории группы «Карнавал».
01. Спасательный круг (А. Барыкин)
02. Мосты (А. Барыкин)
03. 20-00 (А. Барыкин)
04. Храни меня мой талисман (А. Барыкин)
05. Девушка моей мечты (А. Барыкин)
06. Кресты и звезды (А. Барыкин)
07. Дождь и снег (А. Барыкин)
08. Программа телепередач (А. Барыкин)
09. Аэропорт (А. Барыкин)
10. Больше не встречу (А. Барыкин)
11. Букет (А. Барыкин)
12. Чудо остров (А. Барыкин)
13. Под шум дождя (А. Барыкин)
14. Два цветка (А. Барыкин)
15. Ямайка (А. Барыкин)
16. Звездный карнавал (А. Барыкин)
17. Звездный корабль (А. Барыкин)
18. Русский снег (А. Барыкин)
19. Наш путь (А. Барыкин)
20. Букет (А. Барыкин)
21. Облака (А. Барыкин)
22. Диво Дивное (А. Барыкин)
23. Я знаю теперь (А. Барыкин)
24. Ямайка (А. Барыкин)
25. Звездный корабль (А. Барыкин)
26. До свидания, мама (гр. "Моральный кодекс")
27. Актриса по жизни (гр. "Моральный кодекс")
28. Любовь не горит (гр. "Браво")
29. Этот город (гр. "Браво")
30. А. Барыкин "Ночь - голубая тайна (Ая!)"
31. А. Барыкин "Течет река Волга"
32. А. Пугачева, А. Барыкин, А. Иванов, А. Маршал, А. Коновалов "Спасательный круг"
Качество: DVDRip
Формат: AVI
Видео кодек: DivX
Аудио кодек: AC3
Видео: DivX 5, 720x544, 25.00fps, 1 458 Kbps
Аудио: Dolby AC3, 48000Hz, stereo, 192kbps
Релиз от: KGS





General
Complete name : H:Barikin.Karnaval.2005.DVDRip.Kinomagia.avi
Format : AVI
Format/Info : Audio Video Interleave
Format profile : OpenDML
File size : 2.05 GiB
Duration : 2h 57mn
Overall bit rate : 1 659 Kbps
Writing application : VirtualDubMod 1.5.4.1 (build 2178/release)
Writing library : VirtualDubMod build 2178/release

Video
ID : 0
Format : MPEG-4 Visual
Format settings, BVOP : 1
Format settings, QPel : No
Format settings, GMC : No warppoints
Format settings, Matrix : Default (H.263)
Muxing mode : Packed bitstream
Codec ID : DX50
Codec ID/Hint : DivX 5
Duration : 2h 57mn
Bit rate : 1 458 Kbps
Width : 720 pixels
Height : 544 pixels
Display aspect ratio : 4:3
Frame rate : 25.000 fps
Color space : YUV
Chroma subsampling : 4:2:0
Bit depth : 8 bits
Scan type : Progressive
Compression mode : Lossy
Bits/(Pixel*Frame) : 0.149
Stream size : 1.81 GiB (88%)
Writing library : DivX 6.8.5 (UTC 2009-08-20)

Audio
ID : 1
Format : AC-3
Format/Info : Audio Coding 3
Mode extension : CM (complete main)
Codec ID : 2000
Duration : 2h 57mn
Bit rate mode : Constant
Bit rate : 192 Kbps
Channel(s) : 2 channels
Channel positions : Front: L R
Sampling rate : 48.0 KHz
Bit depth : 16 bits
Compression mode : Lossy
Stream size : 243 MiB (12%)
Alignment : Split accross interleaves
Interleave, duration : 96 ms (2.40 video frames)
Interleave, preload duration : 96 ms
Language : English

pb.wtf



Скачать Александр Барыкин представляет. Группа Карнавал. 25 лет через торрент https://pic1.kartinco.top/images/61/5jrs5.jpg Скачать, смотреть онлайн Александр Барыкин представляет. Группа Карнавал. 25 лет [2005 г., Рок, поп, DVDRip] бесплантно в хорошем качестве Описание: В DVD вошли видеосъёмки концертных выступлений группы «Карнавал» разных лет, в том числе и концертное выступление, посвящённое ... 10 10 8
Info! Золотая раздача, скачанное не засчитывается.
Торрент: Зарегистрирован [2014-04-02 17:27] · скачан: 109 раз
Статус: √ проверено
Размер: 2.05 GB
Как cкачать? Как скачать Александр Барыкин представляет. Группа Карнавал. 25 лет через торрент | UTorrent

28-11-2019 20:33  

Отключить всю рекламу на сайте

02-04-2014 17:54 Александр Барыкин представляет. Группа Карнавал. 25 лет Скачать торрент  

У Барыкина был такой сипой голос во время разговорной речи, но пел он хорошо, вот парадокс!pb.wtf



02-04-2014 17:58 Александр Барыкин представляет. Группа Карнавал. 25 лет Скачать торрент  

haizenberg писал(а):

У Барыкина был такой сипой голос во время разговорной речи, но пел он хорошо, вот парадокс!

согласен,я встречал еще другой парадокс:человек при разговоре сильно заикался,а вот при пении-нет,как так????pb.wtf



02-04-2014 18:07 Александр Барыкин представляет. Группа Карнавал. 25 лет Скачать торрент  

Спасибо, рип с DVD9, иль это новое что-то?pb.wtf



02-04-2014 18:11 Александр Барыкин представляет. Группа Карнавал. 25 лет Скачать торрент  

svsvsvs писал(а):

Спасибо, рип с DVD9, иль это новое что-то?

не знаю,рип сделан не мнойpb.wtf



    Дорогой пользователь! Огромная просьба, поблагодарите релизера, оцените раздачу и оставьте свои комментарий, если Вы скачали Александр Барыкин представляет. Группа Карнавал. 25 лет через торрент бесплатно!
    Комментировать посты могут только пользователи прошедшие не сложную регистрацию
    Показать сообщения:    

    Александр Барыкин представляет. Группа Карнавал. 25 лет через торрент
    Скачать бесплатно Александр Барыкин представляет. Группа Карнавал. 25 лет
    Александр Барыкин представляет. Группа Карнавал. 25 лет скачать торрент
    Александр Барыкин представляет. Группа Карнавал. 25 лет смотреть онлайн
    Cкачать фильм Александр Барыкин представляет. Группа Карнавал. 25 лет бесплатно
    Александр Барыкин представляет. Группа Карнавал. 25 лет скачать торрент в хорошем качестве
    Александр Барыкин представляет. Группа Карнавал. 25 лет смотреть онлайн бесплатно в хорошем качестве


    Вы не можете начинать темы
    Вы не можете отвечать на сообщения
    Вы не можете редактировать свои сообщения
    Вы не можете удалять свои сообщения
    Вы не можете голосовать в опросах
    Вы не можете прикреплять файлы к сообщениям
    Вы можете скачивать файлы