2 сезон

iTunes

1 сезон

1

iTunes

iTunes

iTunes

1 сезон

RePack

30

ИГРА 18+

pack

ВАЖНО

!!Акция!!

Alien_RageХит недели

RePack

MK11
pack

Забери бонус

RePack

jed

!!Акция!!

Alien_Rage

RePack

fifa19

RePack

Assassins Creed: Odyssey

RePack

NEED FOR SPEED™ PAYBACK

4 сезон

9 сезон

Бесстыжие 9 сезон

Все сериалы

все сериалы на PB.wtf

RePack

FAR CRY 5
  

Дополнительные требования для всех релизов кинопроката , Видео и ТВ (отчёт MediaInfo) pb.wtf

Скачать  

02-04-2014 17:43 Дополнительные требования для всех релизов кинопроката , Видео и ТВ Скачать торрент  

  • Для всех релизов кинопроката Видео и ТВ Желательно, чтобы в раздаче под спойлером был полный отчёт программы MediaInfo основного файла раздачи в формате AVI, позволяющих получать техническую информацию о видео и аудио- файле.
  • Полный отчет программы MediaInfo для контейнера MKV (Matroska) является обязательным, в остальных случаях информация предоставляется по требованию модератора.. Релизер должен воспользоваться подходящей для этого программой и оформить отчет в релизе еще до проверки темы модератором. Отчет в релизе должен быть в текстовом формате, а весь текст под спойлером
    Общее
    Уникальный идентификатор : 180733192296065418617393488874270725061 (0x87F7F25AD9BB89078E724973F03D93C5)
    Полное имя : D:ТорентыJava.Heat.2013.Blu.Ray.720p..mkv
    Формат : Matroska
    Версия формата : Version 4 / Version 2
    Размер файла : 5,61 Гбайт
    Продолжительность : 1 ч. 43 м.
    Общий поток : 7744 Кбит/сек
    Название фильма :
    Дата кодирования : UTC 2014-03-31 21:31:39
    Программа кодирования : mkvmerge v6.8.0 ('Theme for Great Cities') 64bit built on Mar 2 2014 21:34:26
    Библиотека кодирования : libebml v1.3.0 + libmatroska v1.4.1

    Видео
    Идентификатор : 1
    Формат : AVC
    Формат/Информация : Advanced Video Codec
    Профиль формата : High@L4.1
    Параметр CABAC формата : Да
    Параметр ReFrames формата : 12 кадров
    Идентификатор кодека : V_MPEG4/ISO/AVC
    Продолжительность : 1 ч. 43 м.
    Битрейт : 6347 Кбит/сек
    Ширина : 1280 пикселей
    Высота : 544 пикселя
    Соотношение сторон : 2,35:1
    Режим частоты кадров : Постоянный
    Частота кадров : 23,976 кадра/сек
    Цветовое пространство : YUV
    Субдискретизация насыщенности : 4:2:0
    Битовая глубина : 8 бит
    Тип развёртки : Прогрессивная
    Бит/(Пиксели*Кадры) : 0.380
    Размер потока : 4,48 Гбайт (80%)
    Заголовок
    Библиотека кодирования : x264 core 130 r2273 b3065e6
    Настройки программы : cabac=1 / ref=12 / deblock=1:-3:-3 / analyse=0x3:0x133 / me=umh / subme=10 / psy=1 / psy_rd=1.00:0.10 / mixed_ref=1 / me_range=48 / chroma_me=1 / trellis=2 / 8x8dct=1 / cqm=0 / deadzone=21,11 / fast_pskip=0 / chroma_qp_offset=-3 / threads=12 / lookahead_threads=1 / sliced_threads=0 / nr=0 / decimate=0 / interlaced=0 / bluray_compat=0 / constrained_intra=0 / bframes=8 / b_pyramid=2 / b_adapt=2 / b_bias=0 / direct=3 / weightb=1 / open_gop=0 / weightp=2 / keyint=360 / keyint_min=2 / scenecut=40 / intra_refresh=0 / rc_lookahead=60 / rc=2pass / mbtree=1 / bitrate=6347 / ratetol=1.0 / qcomp=0.70 / qpmin=0 / qpmax=69 / qpstep=4 / cplxblur=20.0 / qblur=0.5 / vbv_maxrate=50000 / vbv_bufsize=30000 / nal_hrd=none / ip_ratio=1.10 / aq=2:1.00
    Default : Да
    Forced : Нет

    Аудио #1
    Идентификатор : 2
    Формат : AC-3
    Формат/Информация : Audio Coding 3
    Расширение режима : CM (complete main)
    Параметр Endianness формата : Big
    Идентификатор кодека : A_AC3
    Продолжительность : 1 ч. 43 м.
    Вид битрейта : Постоянный
    Битрейт : 192 Кбит/сек
    Каналы : 2 канала
    Расположение каналов : Front: L R
    Частота : 48,0 КГц
    Битовая глубина : 16 бит
    Метод сжатия : С потерями
    Размер потока : 143 Мбайт (2%)
    Заголовок : Дубляж
    Язык : Russian
    Default : Да
    Forced : Да

    Аудио #2
    Идентификатор : 3
    Формат : AC-3
    Формат/Информация : Audio Coding 3
    Расширение режима : CM (complete main)
    Параметр Endianness формата : Big
    Идентификатор кодека : A_AC3
    Продолжительность : 1 ч. 43 м.
    Вид битрейта : Постоянный
    Битрейт : 448 Кбит/сек
    Каналы : 6 каналов
    Расположение каналов : Front: L C R, Side: L R, LFE
    Частота : 48,0 КГц
    Битовая глубина : 16 бит
    Метод сжатия : С потерями
    Размер потока : 333 Мбайт (6%)
    Заголовок : den904
    Язык : Russian
    Default : Нет
    Forced : Нет

    Аудио #3
    Идентификатор : 4
    Формат : DTS
    Формат/Информация : Digital Theater Systems
    Режим : 16
    Параметр Endianness формата : Big
    Идентификатор кодека : A_DTS
    Продолжительность : 1 ч. 43 м.
    Вид битрейта : Постоянный
    Битрейт : 768 Кбит/сек
    Каналы : 6 каналов
    Расположение каналов : Front: L C R, Side: L R, LFE
    Частота : 48,0 КГц
    Битовая глубина : 16 бит
    Метод сжатия : С потерями
    Размер потока : 570 Мбайт (10%)
    Язык : English
    Default : Нет
    Forced : Нет

    Текст #1
    Идентификатор : 5
    Формат : UTF-8
    Идентификатор кодека : S_TEXT/UTF8
    Идентификатор кодека/Информация : UTF-8 Plain Text
    Заголовок : kon2011
    Язык : Russian
    Default : Нет
    Forced : Нет

    Текст #2
    Идентификатор : 6
    Формат : UTF-8
    Идентификатор кодека : S_TEXT/UTF8
    Идентификатор кодека/Информация : UTF-8 Plain Text
    Язык : English
    Default : Нет
    Forced : Нет

    Меню
    00:00:00.000 : en:00:00:00.000
    00:00:58.267 : en:00:00:58.267
    00:10:54.237 : en:00:10:54.237
    00:18:57.636 : en:00:18:57.636
    00:31:08.158 : en:00:31:08.158
    00:41:59.934 : en:00:41:59.934
    00:50:22.937 : en:00:50:22.937
    01:00:12.943 : en:01:00:12.943
    01:09:59.320 : en:01:09:59.320
    01:21:57.621 : en:01:21:57.621
    01:35:30.308 : en:01:35:30.308
    01:38:19.769 : en:01:38:19.769

    [/code]
  • Как получить информацию по видеофайлу (отчёт MediaInfo) Как получить информацию по видеофайлу (отчёт MediaInfo)
    Внимания для тех кто заливаем мультитрекерные раздачи, наличие в них отчёта MediaInfo также обязателен (MKV файл). Но так как файл мы полностью не скачиваем, а иногда бывает на первоисточнике нет MediaInfo что же делать?
    Все очень просто, мы можем скачать не весь файл, а его часть и с него получить MediaInfo.

    Цитата:

    (рассматривается программа µTorrent (В версии 3 и выше это делать не нужно. там по умолчанию уже стоит)
    Для того, чтобы получить доступ к скрытым настройкам µTorrent:
    Нажмите и удерживайте клавиши Shift F2;
    Откройте Настройки, вкладку Дополнительно;
    Отпустите клавиши Shift F2.
    Среди скрытых параметров нас интересуют два: bt.sequential_download и bt.sequential_files. Первая настройка при включении (true) заставляет µTorrent скачивать части строго последовательно, от первой к последней. Вторая указывает клиенту скачивать по порядку файлы. Для просмотра недокачанных файлов необходимо включить первую настройку.

    после этих нехитрых настроек, можно буквально через пару секунд, начинать просмотр.

    Таким образом мы не качая весь файл, сможем снять с него MediaInfo возможно он будет не на 100% отображать битрейт, но все остальное будет видно как при полном скачанном файле.
    скриншот  
    General
    Unique ID : 204037378915070343619217499625937234561 (0x99802B76E0BA19A09038E704ABF0EA81)
    Complete name : D:\Торенты\PK.2014.BDRemux.1080i.AC3.Rus.Hin.mkv
    Format : Matroska
    Format version : Version 4 / Version 2
    File size : 21.3 GiB
    Duration : 2h 32mn
    Overall bit rate : 20.0 Mbps
    Encoded date : UTC 2015-01-12 16:26:10
    Writing application : mkvmerge v6.0.0 ('Coming Up For Air') built on Jan 20 2013 09:52:00
    Writing library : libebml v1.3.0 + libmatroska v1.4.0

    Video
    ID : 1
    Format : MPEG Video
    Format version : Version 2
    Format profile : Main@High
    Format settings, BVOP : Yes
    Format settings, Matrix : Custom
    Format settings, GOP : M=3, N=16
    Codec ID : V_MPEG2
    Codec ID/Info : MPEG 1 or 2 Video
    Duration : 2h 32mn
    Bit rate : 19.0 Mbps
    Maximum bit rate : 19.7 Mbps
    Width : 1 920 pixels
    Height : 1 080 pixels
    Display aspect ratio : 16:9
    Frame rate mode : Constant
    Frame rate : 24.000 fps
    Standard : Component
    Color space : YUV
    Chroma subsampling : 4:2:0
    Bit depth : 8 bits
    Scan type : Progressive
    Compression mode : Lossy
    Bits/(Pixel*Frame) : 0.381
    Time code of first frame : 00:00:00:00
    Time code source : Group of pictures header
    GOP, Open/Closed : Closed
    Stream size : 20.2 GiB (95%)
    Writing library : TMPGEnc Video Mastering Works 5 Version. 5.0.6.38
    Default : Yes
    Forced : No
    Color primaries : BT.709
    Transfer characteristics : BT.709
    Matrix coefficients : BT.709

    Audio #1
    ID : 2
    Format : AC-3
    Format/Info : Audio Coding 3
    Mode extension : CM (complete main)
    Format settings, Endianness : Big
    Codec ID : A_AC3
    Duration : 2h 32mn
    Bit rate mode : Constant
    Bit rate : 192 Kbps
    Channel(s) : 2 channels
    Channel positions : Front: L R
    Sampling rate : 48.0 KHz
    Bit depth : 16 bits
    Compression mode : Lossy
    Stream size : 209 MiB (1%)
    Language : Russian
    Default : Yes
    Forced : No

    Audio #2
    ID : 3
    Format : AC-3
    Format/Info : Audio Coding 3
    Mode extension : CM (complete main)
    Format settings, Endianness : Big
    Codec ID : A_AC3
    Duration : 2h 32mn
    Bit rate mode : Constant
    Bit rate : 448 Kbps
    Channel(s) : 6 channels
    Channel positions : Front: L C R, Side: L R, LFE
    Sampling rate : 48.0 KHz
    Bit depth : 16 bits
    Compression mode : Lossy
    Stream size : 488 MiB (2%)
    Language : Hindi
    Default : No
    Forced : No
    В данном случае отчёт отображает реальные параметры на 100%. В любом случае если что модераторы вам помогут и подскажут так как понимают что MediaInfo для таких раздач не всегда можно найти.pb.wtf



  • 28-11-2019 20:33  

    Отключить всю рекламу на сайте

      Дорогой пользователь! Огромная просьба, поблагодарите релизера, оцените раздачу и оставьте свои комментарий, если Вы скачали Дополнительные требования для всех релизов кинопроката , Видео и ТВ через торрент бесплатно! Внесите свою лепту в развитие PiratBit!
      Комментировать посты могут только пользователи прошедшие не сложную регистрацию
      Показать сообщения:    

      Дополнительные требования для всех релизов кинопроката , Видео и ТВ через торрент
      Скачать бесплатно Дополнительные требования для всех релизов кинопроката , Видео и ТВ
      Дополнительные требования для всех релизов кинопроката , Видео и ТВ скачать торрент
      Дополнительные требования для всех релизов кинопроката , Видео и ТВ смотреть онлайн
      Cкачать фильм Дополнительные требования для всех релизов кинопроката , Видео и ТВ бесплатно
      Дополнительные требования для всех релизов кинопроката , Видео и ТВ скачать торрент в хорошем качестве
      Дополнительные требования для всех релизов кинопроката , Видео и ТВ смотреть онлайн бесплатно в хорошем качестве


      Вы не можете начинать темы
      Вы не можете отвечать на сообщения
      Вы не можете редактировать свои сообщения
      Вы не можете удалять свои сообщения
      Вы не можете голосовать в опросах
      Вы не можете прикреплять файлы к сообщениям
      Вы не можете скачивать файлы