Ссылка на приватное зеркало нашего сайта всего за 1$. Внимание количество ограничено!!!

2 сезон

iTunes

1 сезон

1

iTunes

iTunes

iTunes

1 сезон

RePack

30

ИГРА 18+

pack

ВАЖНО

!!Акция!!

Alien_RageХит недели

RePack

MK11
pack

Забери бонус

RePack

jed

!!Акция!!

Alien_Rage

RePack

fifa19

RePack

Assassins Creed: Odyssey

RePack

NEED FOR SPEED™ PAYBACK

4 сезон

9 сезон

Бесстыжие 9 сезон

Все сериалы

все сериалы на PB.wtf

RePack

FAR CRY 5
  

Крутые чуваки / Bad Asses (Крэйг Мосс / Craig Moss) [ 2014 , США , боевик , HDRip ] VO (datynet) pb.wtf

Крутые чуваки через торрент pb.wtf

Размер: 1.45 GB | Добавлен: 6 лет 6 мес. назад | Торрент скачан:848 раз
Скачать  

03-04-2014 00:40 Крутые чуваки Скачать торрент  

Крутые чуваки / Bad Asses
Год выпуска: 2014
Страна: США
Жанр: боевик
Продолжительность: 01:30:40
Перевод: Любительский (одноголосый)(datynet)
Субтитры: Нет

Режиссер: Крэйг Мосс / Craig Moss
Сценарий: Крэйг Мосс / Craig Moss
Продюсер: Джим Басфилд / Jim Busfield, Бен Фейнголд / Ben Feingold, Эш Р. Шах / Ash R. Shah, Joe Abel, Тодд Кинг / Todd King
Оператор: Пол Маршалл / Paul Marschall
Композитор: Тодд Хаберман / Todd Haberman

В ролях:
Дэнни Трехо (Frank Vega), Дэнни Гловер (Bernie Pope), Эндрю Дивофф (Leandro Herrera), Жаклин Обрадорс (Rosaria Parkes), Софи Ди (Hot girl), Данте Баско (Gangly Asian), Джонатан Липники (Hammer), Чарли Карвер (Eric), Сара Дюмон (Jessica), Игнасио Серричио (Adolfo), Рассел Харпер (Security Guy), Патрик Фабиан (Officer Malark)

Мировая премьера: 8 апреля 2014

Описание:
Френк Вега возвращается, что бы надрать задницы наркоторговцам, заполонивших Лос-Анджелес. И в этом непростом деле ему поможет верный друг Берни!

Рейтинг
MPAA: R - Лицам до 17 лет обязательно присутствие взрослого

Качество: HDRip
Формат: AVI
Видео кодек: XviD
Аудио кодек: AC3/MP3
Видео: 1706 Кбит/сек, 720*400 (16:9), в 23,976 кадра/сек, MPEG-4 Visual (XviD)
Аудио №1: 192 Кбит/сек, 44,1 КГц, 2 канала, MPEG Audio (MP3 )
Аудио №2: 384 Кбит/сек, 48,0 КГц, 16 бит, 6 каналов, AC-3

Общее
Кол-во : 284
Кол-во потоков такого типа : 1
Тип потока : General
Тип потока : Общее
Идентификатор типа потока : 0
Inform : AVI: 1,45 Гбайт, 1 ч. 30 м.
Кол-во видеопотоков : 1
Кол-во аудиопотоков : 2
Video_Format_List : MPEG-4 Visual
Video_Format_WithHint_List : MPEG-4 Visual (XviD)
Видеокодеки : XviD
Audio_Format_List : MPEG Audio / AC-3
Audio_Format_WithHint_List : MPEG Audio (MP3 ) / AC-3
Аудиокодеки : MPEG-1 Audio layer 3 / AC3
Полное имя : H:ТОРРЕНТЫКрутые чуваки.avi
Имя папки : H:ТОРРЕНТЫ
Имя файла : Крутые чуваки
Расширение : avi
Формат : AVI
Формат : AVI
Формат/Информация : Audio Video Interleave
Формат/Используется в : avi
Коммерческое название : AVI
Интернет-тип носителя : video/vnd.avi
Чередующаяся : Yes
Кодек : AVI
Кодек : AVI
Кодек/Информация : Audio Video Interleave
Кодек/Используется в : avi
Размер файла : 1561124864
Размер файла : 1,45 Гбайт
Размер файла : 1 Гбайт
Размер файла : 1,5 Гбайт
Размер файла : 1,45 Гбайт
Размер файла : 1,454 Гбайт
Продолжительность : 5440143
Продолжительность : 1 ч. 30 м.
Продолжительность : 1 ч. 30 м. 40 с. 143 мс.
Продолжительность : 1 ч. 30 м.
Продолжительность : 01:30:40.143
Общий поток : 2295712
Общий поток : 2296 Кбит/сек
Размер потока : 9624346
Размер потока : 9,18 Мбайт (1%)
Размер потока : 9 Мбайт
Размер потока : 9,2 Мбайт
Размер потока : 9,18 Мбайт
Размер потока : 9,178 Мбайт
Размер потока : 9,18 Мбайт (1%)
Пропорции потока : 0.00617
Дата файла : UTC 2014-04-03 00:29:24.690
Дата файла (местная) : 2014-04-03 07:29:24.690
Дата изменения файла : UTC 2014-04-03 00:13:58.200
Дата изменения файла (местная) : 2014-04-03 07:13:58.200
Программа кодирования : VirtualDubMod 1.5.10.3 | www.virtualdub-fr.org || (build 2550/release)
Библиотека кодирования : VirtualDubMod build 2550/release
Библиотека кодирования : VirtualDubMod build 2550/release
Правообладатель : SaM

Видео
Кол-во : 271
Кол-во потоков такого типа : 1
Тип потока : Video
Тип потока : Видео
Идентификатор типа потока : 0
StreamOrder : 0
Inform : 1706 Кбит/сек, 720*400 (16:9), в 23,976 кадра/сек, MPEG-4 Visual (XviD) (Сжатый битовый поток) (Advanced Simple@L5) (BVOP4)
Идентификатор : 0
Идентификатор : 0
Формат : MPEG-4 Visual
Коммерческое название : MPEG-4 Visual
Профиль формата : Advanced Simple@L5
Настройки формата : BVOP4
Параметр BVOP формата : 4
Параметр BVOP формата : 4
Параметр QPel формата : No
Параметр QPel формата : Нет
Параметр GMC формата : 0
Параметр GMC формата : Без точки перехода
Параметр матрицы формата : Default (H.263)
Параметр матрицы формата : Default (H.263)
Интернет-тип носителя : video/MP4V-ES
Режим смешивания : Сжатый битовый поток
Идентификатор кодека : XVID
Идентификатор кодека/Подсказка : XviD
Идентификатор кодека/Ссылка : http://mediaarea.net/XVID
Кодек : XVID
Кодек : XviD
Кодек/Семейство : MPEG-4V
Кодек/Информация : XviD project
Кодек/Ссылка : http://www.xvid.org/Downloads.15.0.html
Кодек/CC : XVID
Профиль кодека : Advanced Simple@L5
Настройки кодека : BVOP / Packed Bitstream
Параметр пакетного потока данных кодека : Yes
Параметр BVOP кодека : Yes
Параметр QPel кодека : No
Параметр GMC кодека : 0
Параметр GMC кодека : Без точки перехода
Параметр матрицы кодека : Default (H.263)
Продолжительность : 5440143
Продолжительность : 1 ч. 30 м.
Продолжительность : 1 ч. 30 м. 40 с. 143 мс.
Продолжительность : 1 ч. 30 м.
Продолжительность : 01:30:40.143
Битрейт : 1705557
Битрейт : 1706 Кбит/сек
Ширина : 720
Ширина : 720 пикселей
Высота : 400
Высота : 400 пикселей
Пропорции пикселя : 1.000
Соотношение сторон : 1.800
Соотношение сторон : 16:9
Частота кадров : 23.976
Частота кадров : 23,976 кадра/сек
Счётчик кадров : 130433
Разрешение : 8
Разрешение : 8 бит
Колориметрия : 4:2:0
Цветовое пространство : YUV
Субдискретизация насыщенности : 4:2:0
Битовая глубина : 8
Битовая глубина : 8 бит
Тип развёртки : Progressive
Тип развёртки : Прогрессивная
Переплетение : PPF
Переплетение : Прогрессивная
Метод сжатия : Lossy
Метод сжатия : С потерями
Бит/(Пиксели*Кадры) : 0.247
Задержка : 0
Задержка : 00:00:00.000
Размер потока : 1159810219
Размер потока : 1,08 Гбайт (74%)
Размер потока : 1 Гбайт
Размер потока : 1,1 Гбайт
Размер потока : 1,08 Гбайт
Размер потока : 1,080 Гбайт
Размер потока : 1,08 Гбайт (74%)
Пропорции потока : 0.74293
Библиотека кодирования : XviD0064
Библиотека кодирования : XviD 64
Библиотека кодирования/Имя : XviD
Библиотека кодирования/Version : 64

Аудио #1
Кол-во : 222
Кол-во потоков такого типа : 2
Тип потока : Audio
Тип потока : Аудио
Идентификатор типа потока : 0
Позиция идентификатора типа потока : 1
StreamOrder : 1
Inform : 192 Кбит/сек, 44,1 КГц, 2 канала, MPEG Audio (MP3 ) (Version 1) (Layer 3)
Идентификатор : 1
Идентификатор : 1
Формат : MPEG Audio
Коммерческое название : MPEG Audio
Версия формата : Version 1
Профиль формата : Layer 3
Интернет-тип носителя : audio/mpeg
Идентификатор кодека : 55
Идентификатор кодека/Подсказка : MP3
Идентификатор кодека/Ссылка : http://www.iis.fraunhofer.de/amm/index.html
Кодек : MPA1L3
Кодек : MPEG-1 Audio layer 3
Кодек/Семейство : MPEG-1
Кодек/Информация : MPEG-1 or 2 layer 3
Кодек/Ссылка : http://www.iis.fraunhofer.de/amm/index.html
Кодек/CC : 55
Продолжительность : 5440143
Продолжительность : 1 ч. 30 м.
Продолжительность : 1 ч. 30 м. 40 с. 143 мс.
Продолжительность : 1 ч. 30 м.
Продолжительность : 01:30:40.143
Вид битрейта : CBR
Вид битрейта : Постоянный
Битрейт : 192000
Битрейт : 192 Кбит/сек
Каналы : 2
Каналы : 2 канала
Частота : 44100
Частота : 44,1 КГц
Количество образцов : 239910306
Метод сжатия : Lossy
Метод сжатия : С потерями
Задержка : 0
Задержка : 00:00:00.000
Задержка в оригинале : Stream
Задержка в оригинале : 'Сырой' поток
Задержка видео : 0
Задержка видео : 0
Размер потока : 130563433
Размер потока : 125 Мбайт (8%)
Размер потока : 125 Мбайт
Размер потока : 125 Мбайт
Размер потока : 125 Мбайт
Размер потока : 124,5 Мбайт
Размер потока : 125 Мбайт (8%)
Пропорции потока : 0.08363
Выравнивание : Split
Выравнивание : Разделение по промежуткам
Продолжительность промежутка : 1.00
Продолжительность промежутка : 42
Продолжительность промежутка : 42 мс. (1,00 видеокадр)
Время предзагрузки промежутка : 500
Время предзагрузки промежутка : 500 мс.

Аудио #2
Кол-во : 234
Кол-во потоков такого типа : 2
Тип потока : Audio
Тип потока : Аудио
Идентификатор типа потока : 1
Позиция идентификатора типа потока : 2
StreamOrder : 2
Inform : 384 Кбит/сек, 48,0 КГц, 16 бит, 6 каналов, AC-3
Идентификатор : 2
Идентификатор : 2
Формат : AC-3
Формат/Информация : Audio Coding 3
Коммерческое название : AC-3
Расширение режима : CM (complete main)
Параметр Endianness формата : Big
Идентификатор кодека : 2000
Кодек : AC3
Кодек : AC3
Кодек/Семейство : AC3
Кодек/Информация : Dolby AC3
Кодек/CC : 2000
Продолжительность : 5440143
Продолжительность : 1 ч. 30 м.
Продолжительность : 1 ч. 30 м. 40 с. 143 мс.
Продолжительность : 1 ч. 30 м.
Продолжительность : 01:30:40.143
Вид битрейта : CBR
Вид битрейта : Постоянный
Битрейт : 384000
Битрейт : 384 Кбит/сек
Каналы : 6
Каналы : 6 каналов
Расположение каналов : Front: L C R, Side: L R, LFE
Расположение каналов : 3/2/0.1
Частота : 48000
Частота : 48,0 КГц
Количество образцов : 261126864
Разрешение : 16
Разрешение : 16 бит
Битовая глубина : 16
Битовая глубина : 16 бит
Метод сжатия : Lossy
Метод сжатия : С потерями
Задержка : 0
Задержка : 00:00:00.000
Задержка в оригинале : Stream
Задержка в оригинале : 'Сырой' поток
Задержка видео : 0
Задержка видео : 0
Размер потока : 261126866
Размер потока : 249 Мбайт (17%)
Размер потока : 249 Мбайт
Размер потока : 249 Мбайт
Размер потока : 249 Мбайт
Размер потока : 249,0 Мбайт
Размер потока : 249 Мбайт (17%)
Пропорции потока : 0.16727
Выравнивание : Split
Выравнивание : Разделение по промежуткам
Продолжительность промежутка : 1.00
Продолжительность промежутка : 42
Продолжительность промежутка : 42 мс. (1,00 видеокадр)
Время предзагрузки промежутка : 500
Время предзагрузки промежутка : 500 мс.
bsid : 8
dialnorm : -31
dialnorm/String : -31 dB
acmod : 7
lfeon : 1
dialnorm_Average : -31
dialnorm_Average/String : -31 dB
dialnorm_Minimum : -31
dialnorm_Minimum/String : -31 dB
dialnorm_Maximum : -31
dialnorm_Maximum/String : -31 dB
dialnorm_Count : 405





pb.wtf



Скачать Крутые чуваки через торрент http://i2.imageban.ru/out/2014/04/03/f812858eba8e930ca1f0d3cde54b0e67.jpg Скачать фильм Крутые чуваки через торрент бесплантно в хорошем качестве Описание:Френк Вега возвращается, что бы надрать задницы наркоторговцам, заполонивших Лос-Анджелес. И в этом непростом деле ему поможет ... 8.6 10 28
Торрент: Зарегистрирован [2014-04-03 00:40] · скачан: 848 раз
Статус: T временная
Размер: 1.45 GB
Как cкачать? Как скачать Крутые чуваки через торрент | qTorrent

% Раздел Тема Автор DL S | L
Фильмы (WEB-DL 720p, 1080p) [ 3.61 GB ] Крутые чуваки на Байю / Bad Asses on the Bayou [2014 WEB-DL 1080p] [SDI media] -Lexx- Скачать
1 | 0
Фильмы 2014 [DVDrip, WEB-DLRip, HDrip] [ 695 MB ] Крутые чуваки / Bad Asses [2014 HDRip] [Sub] [RUS ENG ()] + [Orig] Eng killermax2013 Скачать
1 | 0

28-11-2019 20:33  

Отключить всю рекламу на сайте

03-04-2014 01:34 Крутые чуваки Скачать торрент  

Хех) То ругали что полное MI выкладываю)) А теперь требованием стало) pb.wtf



03-04-2014 03:42 Крутые чуваки Скачать торрент  

Тебя наверняка попросят ссылки из MI убрать.pb.wtf



03-04-2014 03:57 Крутые чуваки Скачать торрент  

ФёдорOFF писал(а):

Тебя наверняка попросят ссылки из MI убрать.

Там нет ссылок на сторонние ресурсы) Ну хотя посмотрим pb.wtf



03-04-2014 04:59 Крутые чуваки Скачать торрент  

Смотрел Bad Asses первая часть порадовало, забираю !pb.wtf



03-04-2014 13:57 Крутые чуваки Скачать торрент  

подождем проф. озвучкуpb.wtf



05-04-2014 12:29 Крутые чуваки Скачать торрент  

А ни чё так фильмец !!pb.wtf



28-05-2014 18:31 Крутые чуваки Скачать торрент  

ща заценимpb.wtf



    Дорогой пользователь! Огромная просьба, поблагодарите релизера, оцените раздачу и оставьте свои комментарий, если Вы скачали Крутые чуваки через торрент бесплатно! Внесите свою лепту в развитие PiratBit!
    Комментировать посты могут только пользователи прошедшие не сложную регистрацию
    Показать сообщения:    

    Крутые чуваки через торрент
    Скачать бесплатно Крутые чуваки
    Крутые чуваки скачать торрент
    Крутые чуваки смотреть онлайн
    Cкачать фильм Крутые чуваки бесплатно
    Крутые чуваки скачать торрент в хорошем качестве
    Крутые чуваки смотреть онлайн бесплатно в хорошем качестве


    Вы не можете начинать темы
    Вы не можете отвечать на сообщения
    Вы не можете редактировать свои сообщения
    Вы не можете удалять свои сообщения
    Вы не можете голосовать в опросах
    Вы не можете прикреплять файлы к сообщениям
    Вы можете скачивать файлы