Ссылка на приватное зеркало нашего сайта всего за 1$. Внимание количество ограничено!!!

2 сезон

iTunes

1 сезон

1

2 сезон

2 сезон

iTunes

1 сезон

RePack

30

Новинка

ВАЖНО

ИГРА 18+

pack

RePack

MK11
pack

Забери бонус

RePack

jed

!!Акция!!

Alien_Rage

RePack

fifa19

RePack

Assassins Creed: Odyssey

RePack

NEED FOR SPEED™ PAYBACK

4 сезон

9 сезон

Бесстыжие 9 сезон

Все сериалы

все сериалы на PB.wtf

RePack

FAR CRY 5
  

Великолепный век / Muhtesem Yuzyil сезон 4 серия 129 (Мерт Байкал , Ягиз Алп Акайдын) [2014 г., драма, мелодрама, военный, биография, история, WEB-DLRip, Любительский одноголосый закадровый ( turok 1990 ) pb.wtf

Великолепный век через торрент pb.wtf

Размер: 1.46 GB | Добавлен: 6 лет 7 мес. назад | Торрент скачан:149 раз
Скачать  

03-04-2014 13:59 Великолепный век Скачать торрент  

Великолепный век / Muhtesem Yuzyil
Год выпуска: 2014
Страна: Турция
Жанр: драма, мелодрама, военный, биография, история
Продолжительность: 1 ч. 52 мин.
Перевод: Любительский одноголосый закадровый ( turok 1990 )

Режиссер: Мерт Байкал , Ягиз Алп Акайдын
Продюссер: Тимур Савчи
Сценарий: Мераль Окай

Бюджет: TRL 4 000 000
Премьера в мире: 2011

IMDB: 6.29
Кинопоиск 7.406

В ролях: Халит Эргенч, Вахиде Перчин, Нур Айсан, Мехмет Гюнсюр, Беррак Тюзюнатач, Арас Булут Ийнемли, Озан Гювен, Пелин Карахан, Мерве Болугур, Энгин Озтюрк, Тольга Сарыташ, Сарп Аккая, Мельтем Джумбул, Серкан Алтунорак, Тунджель Куртиз, Небахат Чехре, Бурак Озчивит, Окан Ялабык, Филиз Ахмет, Дениз Чакыр, Сельма Эргеч, Селим Байрактар, Гюрбей Илери.,

Описание: Сериал повествует о правлении султана Сулеймана Великолепного и его страстной любви к украинской красавице Роксалане. Согласно канонам исламской веры, султан мог иметь четырех законных жен и столько наложниц, сколько сможет содержать. При этом, дети первой жены становились преемниками престола. Роксолана еще девочкой была захвачена в плен и переправлена в Стамбул, где визирь Ибрагим-паша подарил ее султану. Путем интриг, подкупа и умелого обольщения украинская красавица стала женой султана. После принятия ислама она получила имя Хюррем. Сулейман возвел Роксолану в ранг главной жены, и называл ее не иначе как «милой сердцу». Роксолана была не только искусной любовницей, но и умной, интересной собеседницей, хорошо разбирающейся в искусстве и государственных делах. Чтобы реализовать свои амбиции в султанате, Хюррем устраняла всех, кто мог ей в этом помешать. В основу сценария легло несколько исторических романов и средневековых документов.

Качество: WEB-DLRip
Формат: AVI
Видео кодек: XviD
Аудио кодек: MP3
Видео: MPEG-4, 720x400p, 25 fps, ~1500 Kbps
Аудио#1: MP3 , 44.1 KHz, 2 ch, 192 kbps
Формат : AVI
Формат/Info : Audio Video Interleave
Размер файла : 1.45 GiB
Длительность : 1h 52mn
Общий Битрейт : 1 637 Kbps
Создано приложением : VirtualDubMod 1.5.10.3
Writing library : VirtualDub build 32842/release

Video
ID : 0
Формат : MPEG-4 Visual
Формат profile : Advanced Simple@L5
Формат настройки, BVOP : 2
Формат настройки, QPel : No
Формат настройки, GMC : No warppoints
Формат настройки, Matrix : Default (H.263)
Кодек ID : XVID
Кодек ID/Hint : XviD
Длительность : 1h 52mn
Битрейт : 1 436 Kbps
Width : 720 пикселей
Высота : 400 пикселей
Соотношение кадра : 16:9
Частота кадров : 25.000 fps
Цветопередача : YUV
Chroma subsampling : 4:2:0
Разрядность : 8 bits
Тип сканирования : Progressive
Режим сжатия : Lossy
Bits/(Pixel*Frame) : 0.199
Размер потока : 1.20 GiB (88%)
Writing library : XviD 1.2.1

Audio
ID : 1
Формат : MPEG Audio
Формат version : Version 1
Формат profile : Layer 3
Кодек ID : 55
Кодек ID/Hint : MP3
Длительность : 1h 52mn
Битрейт mode : Constant
Битрейт : 192 Kbps
Каналы(s) : 2 канала
Частота : 44.1 KHz
Режим сжатия : Lossy
Размер потока : 165 MiB (12%)
Выравнивание : Split accross interleaves
Interleave, Длительность : 40 ms (1.00 video frame)
Interleave, preload Длительность : 500 ms
Writing library : L3.99r
Encoding настройки : -m s -V 4 -q 2 -lowpass 18.6 -b 192


Великолепный век скачать торрент


pb.wtf



Скачать Великолепный век через торрент http://pic.kartinco.top/images/6/34x6p.jpg Скачать фильм Великолепный век через торрент бесплантно в хорошем качестве Описание: Сериал повествует о правлении султана Сулеймана Великолепного и его страстной любви к украинской красавице Роксалане. Согласно ... 9.6 10 5
Info! Золотая раздача, скачанное не засчитывается.
Торрент: Зарегистрирован [2014-04-03 13:59] · скачан: 149 раз
Статус: √ проверено
Размер: 1.46 GB
Как cкачать? Как скачать Великолепный век через торрент | qTorrent

% Раздел Тема Автор DL S | L
Зарубежные сериалы [ 1.22 GB ] Великолепный век / Muhtesem Yuzyil сезон 4 129 серия [2014 военный биография история HDTVRip Любительский одноголосый ildar1976 Скачать
1 | 0

28-11-2019 20:33  

Отключить всю рекламу на сайте

    Дорогой пользователь! Огромная просьба, поблагодарите релизера, оцените раздачу и оставьте свои комментарий, если Вы скачали Великолепный век через торрент бесплатно! Внесите свою лепту в развитие PiratBit!
    Комментировать посты могут только пользователи прошедшие не сложную регистрацию
    Показать сообщения:    

    Великолепный век через торрент
    Скачать бесплатно Великолепный век
    Великолепный век скачать торрент
    Великолепный век смотреть онлайн
    Cкачать фильм Великолепный век бесплатно
    Великолепный век скачать торрент в хорошем качестве
    Великолепный век смотреть онлайн бесплатно в хорошем качестве


    Вы не можете начинать темы
    Вы не можете отвечать на сообщения
    Вы не можете редактировать свои сообщения
    Вы не можете удалять свои сообщения
    Вы не можете голосовать в опросах
    Вы не можете прикреплять файлы к сообщениям
    Вы можете скачивать файлы