Ссылка на приватное зеркало нашего сайта всего за 1$. Внимание количество ограничено!!!

2 сезон

iTunes

1 сезон

1

2 сезон

2 сезон

iTunes

1 сезон

RePack

30

Новинка

ВАЖНО

ИГРА 18+

pack

RePack

MK11
pack

Забери бонус

RePack

jed

!!Акция!!

Alien_Rage

RePack

fifa19

RePack

Assassins Creed: Odyssey

RePack

NEED FOR SPEED™ PAYBACK

4 сезон

9 сезон

Бесстыжие 9 сезон

Все сериалы

все сериалы на PB.wtf

RePack

FAR CRY 5
  

Кухня в Парижe.Кухня кухни.Фильм о фильме (Дмитрий Дьяченко) [2014 г., Документальный, SATRip] pb.wtf

Кухня в Парижe.Кухня кухни.Фильм о фильме через торрент pb.wtf

Размер: 282 MB | Добавлен: 6 лет 7 мес. назад | Торрент скачан:188 раз
Скачать  

03-04-2014 17:57 Кухня в Парижe.Кухня кухни.Фильм о фильме Скачать торрент  

Кухня в Парижe.Кухня кухни.Фильм о фильмеГод выпуска: 2014
Страна: Россия
Жанр: Документальный
Продолжительность: 00:24:05

Режиссер: Дмитрий Дьяченко

В ролях: Дмитрий Назаров, Дмитрий Нагиев, Елена Подкаминская, Марина Могилевская, Марк Богатырёв, Виктор Хориняк, Ольга Кузьмина, Екатерина Кузнецова, Валерия Федорович, Жанныл Асанбекова, Елена Чернявская, Алексей Колган, Сергей Лавыгин, Сергей Епишев, Михаил Тарабукин, Никита Тарасов, Юлия Такшина, Виктория Лукина, Виталий Щанников, Сергей Беляев, Роман Индык, Евгения Храповицкая, Ольга Новосад, Серафима Низовская, Александр Карпиловский, Мария Горбань, Ирина Бразговка,

Описание: В основу фильма о фильме Кухня в Париже легли материалы, снятые за кадром, неудачные и потому очень смешные дубли, комментарии актеров и продюсеров

Качество: SATRip
Формат: AVI
Видео кодек: XviD
Аудио кодек: MP3
Видео: MPEG4, XviD, 720x368 (1.957), 25.000 fps, 1 500 Kbps (0.226 bit/pixel)
Аудио#1: MP3 , 48.0 KHz, 2 ch, 128 Kbps, CBR

Код:

Общее
Полное имя                       : C:\Games\Kuhnja.kuhni.SATRip.avi
Формат                           : AVI
Формат/Информация                : Audio Video Interleave
Размер файла                     : 282 Мбайт
Продолжительность                : 24 м.
Общий поток                      : 1637 Кбит/сек
Программа кодирования            : VirtualDubMod 1.5.10.3 | www.virtualdub-fr.org || (build 2550/release)
Библиотека кодирования           : VirtualDubMod build 2550/release

Видео
Идентификатор                    : 0
Формат                           : MPEG-4 Visual
Профиль формата                  : Advanced Simple@L5
Параметр BVOP формата            : 2
Параметр QPel формата            : Нет
Параметр GMC формата             : Без точки перехода
Параметр матрицы формата         : Default (H.263)
Идентификатор кодека             : XVID
Идентификатор кодека/Подсказка   : XviD
Продолжительность                : 24 м.
Битрейт                          : 1500 Кбит/сек
Ширина                           : 720 пикс.
Высота                           : 368 пикс.
Соотношение сторон               : 1,957
Частота кадров                   : 25,000 кадр/сек
Цветовое пространство            : YUV
Подвыборка цветности             : 4:2:0
Битовая глубина                  : 8 бит
Тип развёртки                    : Прогрессивная
Метод сжатия                     : С потерями
Бит/(Пиксели*Кадры)              : 0.226
Размер потока                    : 258 Мбайт (92%)
Библиотека кодирования           : XviD 1.2.1 (UTC 2008-12-04)

Аудио
Идентификатор                    : 1
Формат                           : MPEG Audio
Версия формата                   : Version 1
Профиль формата                  : Layer 3
Идентификатор кодека             : 55
Идентификатор кодека/Подсказка   : MP3
Продолжительность                : 24 м.
Вид битрейта                     : Постоянный
Битрейт                          : 128 Кбит/сек
Канал(ы)                         : 2 канала(ов)
Частота                          : 48,0 КГц
Метод сжатия                     : С потерями
Размер потока                    : 22,1 Мбайт (8%)
Выравнивание                     : Соединение по промежуткам
Продолжительность промежутка     : 40  мс. (1,00 видеокадр)
Время предзагрузки промежутка    : 504 ms
Библиотека кодирования           : LAME3.99r
Настройки программы              : -m s -V 4 -q 2 -lowpass 17 -b 128

pb.wtf



Скачать Кухня в Парижe.Кухня кухни.Фильм о фильме через торрент http://pic.kartinco.top/images/6/i68mz.jpg Скачать фильм Кухня в Парижe.Кухня кухни.Фильм о фильме через торрент бесплантно в хорошем качестве Описание: В основу фильма о фильме Кухня в Париже легли материалы, снятые за кадром, неудачные и потому очень смешные дубли, комментарии ... 8.4 10 11
Торрент: Зарегистрирован [2014-04-03 17:57] · скачан: 188 раз
Статус: √ проверено
Размер: 282 MB
Как cкачать? Как скачать Кухня в Парижe.Кухня кухни.Фильм о фильме через торрент | qTorrent

% Раздел Тема Автор DL S | L
Трейлеры и дополнительные материалы к фильмам [ 350 MB ] Кухня в Парижe.Фильм о фильме [2014 документальный WEB-DLRip Оригинал] Se7ven95 Скачать
1 | 0

28-11-2019 20:33  

Отключить всю рекламу на сайте

03-04-2014 21:04 Кухня в Парижe.Кухня кухни.Фильм о фильме Скачать торрент  

Alex_E
я Оформил ваш релиз пожалуйста будьте внимательней в следующий разpb.wtf



03-04-2014 21:14 Кухня в Парижe.Кухня кухни.Фильм о фильме Скачать торрент  

Дата выхода фильма 1 мая 2014 годаpb.wtf



    Дорогой пользователь! Огромная просьба, поблагодарите релизера, оцените раздачу и оставьте свои комментарий, если Вы скачали Кухня в Парижe.Кухня кухни.Фильм о фильме через торрент бесплатно! Внесите свою лепту в развитие PiratBit!
    Комментировать посты могут только пользователи прошедшие не сложную регистрацию
    Показать сообщения:    

    Кухня в Парижe.Кухня кухни.Фильм о фильме через торрент
    Скачать бесплатно Кухня в Парижe.Кухня кухни.Фильм о фильме
    Кухня в Парижe.Кухня кухни.Фильм о фильме скачать торрент
    Кухня в Парижe.Кухня кухни.Фильм о фильме смотреть онлайн
    Cкачать фильм Кухня в Парижe.Кухня кухни.Фильм о фильме бесплатно
    Кухня в Парижe.Кухня кухни.Фильм о фильме скачать торрент в хорошем качестве
    Кухня в Парижe.Кухня кухни.Фильм о фильме смотреть онлайн бесплатно в хорошем качестве


    Вы не можете начинать темы
    Вы не можете отвечать на сообщения
    Вы не можете редактировать свои сообщения
    Вы не можете удалять свои сообщения
    Вы не можете голосовать в опросах
    Вы не можете прикреплять файлы к сообщениям
    Вы можете скачивать файлы