Ссылка на приватное зеркало нашего сайта всего за 1$. Внимание количество ограничено!!!

2 сезон

iTunes

1 сезон

1

2 сезон

2 сезон

iTunes

1 сезон

RePack

30

Ultimate

ВАЖНО

ИГРА 18+

pack

RePack

MK11
pack

Забери бонус

RePack

jed

!!Акция!!

Alien_Rage

RePack

fifa19

RePack

Assassins Creed: Odyssey

RePack

NEED FOR SPEED™ PAYBACK

4 сезон

9 сезон

Бесстыжие 9 сезон

Все сериалы

все сериалы на PB.wtf

RePack

FAR CRY 5
  

Плетеный человек / The Wicker Man (Робин Харди / Robin Hardy) [1973 г., Великобритания, ужасы, триллер, драма, детектив, BDRip] DVO + subs (Rus Forc, Eng) pb.wtf

Плетеный человек через торрент pb.wtf

Размер: 1.45 GB | Добавлен: 6 лет 7 мес. назад | Торрент скачан:71 раз
Скачать  

03-04-2014 23:44 Плетеный человек Скачать торрент  

Плетеный человек
The Wicker Man
Год выпуска: 1973
Страна: Великобритания
Жанр: ужасы, триллер, драма, детектив
Продолжительность: 01:33:08

Перевод: Профессиональный (двухголосый, закадровый)
Субтитры: Русские (форсированные), Английские (внешние srt*)

Режиссер: Робин Харди / Robin Hardy
В ролях: Эдвард Вудворд, Кристофер Ли, Дайан Чиленто, Бритт Экланд, Ингрид Питт, Линдсей Кемп, Расселл Уотерс, Обри Моррис, Ирен Сантерс, Уолтер Карр

Описание: На небольшой остров Саммерайленд, расположенный у берегов Шотландии, прилетает полицейский инспектор сержант Гови, чтобы расследовать исчезновение местной девочки-подростка. На острове, однако, он сталкивается с холодной враждебностью местных жителей. Кроме того, сержант выясняет, что абсолютно все жители острова во главе со своим лидером, лордом Саммерайлом, практикуют ритуалы древнего кельтского язычества…



Качество: BDRip (источник: Enclave76 / BDRemux / 1080p)
Формат: AVI • Видео кодек: XviD • Аудио кодек: АС3
Видео: 704x384 (1.83:1), 23.976 fps, XviD build 65 ~1770 kbps avg, 0.27 bit/pixel
Аудио: 48 kHz, AC3 Dolby Digital, 3/2 (L,C,R,l,r) + LFE ch, ~448.00 kbps avg
• Версия этого издания длиннее обычной DVD-версии на 5 мин и короче расширенной версии DVD на 6 мин. Некоторые эпизоды отличаются хронологией. Соответственно, авторского перевода и полных русских сабов нет.
• На непереведенные места присутствуют форсированные субтитры в папке раздачи.
General
Complete name : Pletenyj.chelovek.1973.RUS.BDRip.XviD.AC3.-HQCLUB.avi
Format : AVI
Format/Info : Audio Video Interleave
File size : 1.45 GiB
Duration : 1h 33mn
Overall bit rate : 2 228 Kbps
Movie name : Плетеный человек / The Wicker Man (1973) BDRip
Genre : ужасы,триллер,драма,детектив
Writing application : VirtualDubMod 1.5.10.2 (build 2540/release)
Релиз : sociolog_melvas
Comment : 02.04.2014

Video
ID : 0
Format : MPEG-4 Visual
Format profile : Advanced Simple@L5
Format settings, BVOP : 1
Format settings, QPel : No
Format settings, GMC : No warppoints
Format settings, Matrix : Custom
Codec ID : XVID
Codec ID/Hint : XviD
Duration : 1h 33mn
Bit rate : 1 771 Kbps
Width : 704 pixels
Height : 384 pixels
Display aspect ratio : 1.85:1
Frame rate : 23.976 fps
Color space : YUV
Chroma subsampling : 4:2:0
Bit depth : 8 bits
Scan type : Progressive
Compression mode : Lossy
Bits/(Pixel*Frame) : 0.273
Stream size : 1.15 GiB (79%)
Writing library : XviD 65

Audio
ID : 1
Format : AC-3
Format/Info : Audio Coding 3
Mode extension : CM (complete main)
Format settings, Endianness : Big
Codec ID : 2000
Duration : 1h 33mn
Bit rate mode : Constant
Bit rate : 448 Kbps
Channel(s) : 6 channels
Channel positions : Front: L C R, Side: L R, LFE
Sampling rate : 48.0 KHz
Bit depth : 16 bits
Compression mode : Lossy
Stream size : 298 MiB (20%)
Alignment : Split accross interleaves
Interleave, duration : 42 ms (1.00 video frame)
Interleave, preload duration : 500 ms
скриншот  
скриншот   скриншот   скриншот   скриншот  
скриншот   скриншот   скриншот   скриншот  
pb.wtf



Скачать Плетеный человек через торрент http://s57.radikal.ru/i158/1404/a0/a4195c25c465.png Скачать фильм Плетеный человек через торрент бесплантно в хорошем качестве Описание: На небольшой остров Саммерайленд, расположенный у берегов Шотландии, прилетает полицейский инспектор сержант Гови, чтобы ... 9.4 10 5
Info! Серебряная раздача, засчитывается только 50% скачанного.
Торрент: Зарегистрирован [2014-04-03 23:44] · скачан: 71 раз
Статус: √ проверено
Размер: 1.45 GB
Как cкачать? Как скачать Плетеный человек через торрент | qTorrent

% Раздел Тема Автор DL S | L
Фильмы 2006-2008 [ 1.55 GB ] Плетеный человек / The Wicker Man [2006 DVB] [Open Matte] [DVO] killermax2013 Скачать
1 | 0
Фильмы [HD 720p, 1080p] (Хороший звук DUB, MVO) [ 8.26 GB ] Плетеный человек / The Wicker Man [2006 BDRip 1080p] diletant Скачать
1 | 0
Фильмы [HD 720p, 1080p] (Хороший звук DUB, MVO) [ 4.81 GB ] Плетеный человек / The Wicker Man [2006 BDRip 720p.] diletant Скачать
1 | 0

28-11-2019 20:33  

Отключить всю рекламу на сайте

    Дорогой пользователь! Огромная просьба, поблагодарите релизера, оцените раздачу и оставьте свои комментарий, если Вы скачали Плетеный человек через торрент бесплатно! Внесите свою лепту в развитие PiratBit!
    Комментировать посты могут только пользователи прошедшие не сложную регистрацию
    Показать сообщения:    

    Плетеный человек через торрент
    Скачать бесплатно Плетеный человек
    Плетеный человек скачать торрент
    Плетеный человек смотреть онлайн
    Cкачать фильм Плетеный человек бесплатно
    Плетеный человек скачать торрент в хорошем качестве
    Плетеный человек смотреть онлайн бесплатно в хорошем качестве


    Вы не можете начинать темы
    Вы не можете отвечать на сообщения
    Вы не можете редактировать свои сообщения
    Вы не можете удалять свои сообщения
    Вы не можете голосовать в опросах
    Вы не можете прикреплять файлы к сообщениям
    Вы можете скачивать файлы