2 сезон

iTunes

MVO

1

2 сезон

iTunes

iTunes

1 сезон

RePack

30

Новинка

ВАЖНО

ИГРА 18+

pack

RePack

MK11
pack

Легкие деньги

RePack

jed

RePack

fifa19

RePack

RDR2

RePack

NEED FOR SPEED™ PAYBACK

4 сезон

9 сезон

Бесстыжие 9 сезон

Все сериалы

все сериалы на PB.wtf

RePack

FAR CRY 5

Anonymous, добрый вечер, мы не успеваем собрать деньги на оплату серверов за декабрь и январь, помогите нам пожалуйста в это трудное время. В качестве благодарности мы отключим Вам всю рекламу на сайте (укажите свой ник в строку Ваше имя)!

×
  
Magnet ссылка

Рок баллады / Romantic Melodies - Rock Ballads DD5.1 (1972-1995) [1996 г., Rock, TVRip] pb.wtf

Рок баллады через торрент pb.wtf

Размер: 4.45 GB | Добавлен: 6 лет 9 мес. назад | Торрент скачан:164 раза
Скачать  

04-04-2014 14:54 Рок баллады Скачать торрент  

Рок баллады / Romantic Melodies - Rock Ballads DD5.1 (1972-1995)Год выпуска: 1996
Страна: USA
Жанр: Rock
Продолжительность: ~01:30:00
Перевод: Оригинал

В ролях:Led Zeppelin, Kanas, Europe, Poison .......

Описание: Романтическая коллекция видеоклипов, баллады в исполнении известных рок-музыкантов в хорошем качестве.
1972_Uriah_Heep_-_Sunrise.vob
1973_Dawn.-.Tie.A.Yellow.Ribbon.Round.The.Old.Oak.Tree.vob
1975_Led_Zeppelin_-_Stairway_To_Heaven_.vob
1975_Smokie_-_If_You_Think_You_Know_How_To_Love_Me.vob
1983_Kansas_-_Fight_Fire_With_Fire.vob
1985_Kansas_-_All_I_Wanted.vob
1986_Cutting Crew - Died In Your Arms Tonight.vob
1986_Europe_-_Carrie.vob
1986_Poison_-_I_Won_t_Forget_You.vob
1987_Foreigner - Say You Will.vob
1988_Inxs_-_Never_Tear_Us_Apart.vob
1989_Wet.Wet.Wet._.Sweet.Surrender.vob
1990_Def.Leppard.-.Hysteria.vob
1991_Chris Rea - Looking For The Summer.vob
1991_Europe_-_I_ll_Cry_For_You.vob
1993_Aerosmith - Crazy.vob
1993_Meat Loaf - I Would Do AnythingFor Love.vob
1994_J.Page & R.Plant - Since I ve Been Loving You.vob
1994_Wet.Wet.Wet.-.Love.Is.All.Around.vob
1995_Ozzy_Ozbourne_-_See_You_On_The_Other_Side.vob
Качество: TVRip
Формат: AVI
Видео кодек: MPEG2
Аудио кодек: AC3
Видео: MPEG2 Video, 720x480 (4:3,) 29.97fps, 5 644 Kbps
Аудио: Dolby AC3, 48000Hz, 6ch, 448kbps
Релиз от: tamegin





General
Complete name : H:\Rock Ballads DD5.1 [NNM-Club]\1972_Uriah_Heep_-_Sunrise.vob
Format : MPEG-PS
File size : 167 MiB
Duration : 3mn 45s
Overall bit rate mode : Variable
Overall bit rate : 6 216 Kbps

Video
ID : 224 (0xE0)
Format : MPEG Video
Format version : Version 2
Format profile : Main@Main
Format settings, BVOP : Yes
Format settings, Matrix : Default
Format settings, GOP : M=3, N=15
Duration : 3mn 45s
Bit rate mode : Variable
Bit rate : 5 644 Kbps
Maximum bit rate : 6 500 Kbps
Width : 720 pixels
Height : 480 pixels
Display aspect ratio : 4:3
Frame rate : 29.970 fps
Standard : NTSC
Color space : YUV
Chroma subsampling : 4:2:0
Bit depth : 8 bits
Scan type : Interlaced
Scan order : Top Field First
Compression mode : Lossy
Bits/(Pixel*Frame) : 0.545
Stream size : 152 MiB (91%)

Audio
ID : 189 (0xBD)-128 (0x80)
Format : AC-3
Format/Info : Audio Coding 3
Mode extension : CM (complete main)
Muxing mode : DVD-Video
Duration : 3mn 45s
Bit rate mode : Constant
Bit rate : 448 Kbps
Channel(s) : 6 channels
Channel positions : Front: L C R, Side: L R, LFE
Sampling rate : 48.0 KHz
Bit depth : 16 bits
Compression mode : Lossy
Stream size : 12.1 MiB (7%)

Menu

pb.wtf



Скачать Рок баллады через торрент http://pic.kartinco.top/images/6/rwp4n.jpg Скачать фильм Рок баллады через торрент бесплантно в хорошем качестве Описание: Романтическая коллекция видеоклипов, баллады в исполнении известных рок-музыкантов в хорошем ... 10 10 9
Info! Золотая раздача, скачанное не засчитывается.
Торрент: Зарегистрирован [2014-04-04 14:54] · скачан: 164 раз
Статус: √ проверено
Размер: 4.45 GB
Как cкачать? Как скачать Рок баллады через торрент | UTorrent



Последний раз редактировалось: lug30 (2014-04-04 15:31), всего редактировалось 1 раз

28-11-2019 20:33  

Отключить всю рекламу на сайте

04-04-2014 15:04 Рок баллады Скачать торрент  

Скоро будет продолжение.....для всех любителей данного жанраpb.wtf



04-04-2014 15:36 Рок баллады Скачать торрент  

lug30 писал(а):

Скоро будет продолжение.....для всех любителей данного жанра

Ждем-с :sarcastic_blum:
Спасибо !pb.wtf



04-04-2014 15:46 Рок баллады Скачать торрент  

Andry196 писал(а):

lug30 писал(а):

Скоро будет продолжение.....для всех любителей данного жанра

Ждем-с :sarcastic_blum:
Спасибо !

уже сделал -приятного просмотра!pb.wtf



04-04-2014 16:15 Рок баллады Скачать торрент  

lug30 писал(а):

Andry196 писал(а):

lug30 писал(а):

Скоро будет продолжение.....для всех любителей данного жанра

Ждем-с :sarcastic_blum:
Спасибо !

уже сделал -приятного просмотра!

Оперативно ! Благодарю pb.wtf



    Дорогой пользователь! Огромная просьба, поблагодарите релизера, оцените раздачу и оставьте свои комментарий, если Вы скачали Рок баллады через торрент бесплатно! Внесите свою лепту в развитие PiratBit!
    Комментировать посты могут только пользователи прошедшие не сложную регистрацию
    Показать сообщения:    

    Рок баллады через торрент
    Скачать бесплатно Рок баллады
    Рок баллады скачать торрент
    Рок баллады смотреть онлайн
    Cкачать фильм Рок баллады бесплатно
    Рок баллады скачать торрент в хорошем качестве
    Рок баллады смотреть онлайн бесплатно в хорошем качестве


    Вы не можете начинать темы
    Вы не можете отвечать на сообщения
    Вы не можете редактировать свои сообщения
    Вы не можете удалять свои сообщения
    Вы не можете голосовать в опросах
    Вы не можете прикреплять файлы к сообщениям
    Вы можете скачивать файлы