Присоединяйтесь к нам в Telegram!, здесь всегда актуальный адрес сайта, оперативная поддержка и многое другое!!

>

5.9

iTunes

7.4

iTunes

9.4

1 сезон

1

7.4

2 сезон

7.2

iTunes

7.3

1 сезон

13

6.1

iTunes

8.3

GOG

30

ULTIMATE

pack

9.9

Лицензия

ВАЖНО

ИГРА 18+

pack

7.3

RePack

MK11

7.7

RePack

jed

7.8

RePack

fifa19

8.5

RePack

RDR2

RePack

NEED FOR SPEED™ PAYBACK

5 сезон

9 сезон

Бесстыжие 9 сезон

Все сериалы

все сериалы на PB.wtf

RePack

FAR CRY 5

Anonymous, добрый день, мы катастрофически не успеваем собрать деньги на оплату серверов, помогите нам пожалуйста 5,10,15р., для нас важна любая помощь . В качестве благодарности мы отключим Вам всю рекламу на сайте (укажите свой ник в строку Ваше имя)!

×
  
Magnet ссылка

Избранные Рок-баллады / My Favorites Rock Ballads (1964-1991) [1992 г., Рок, TVRip] pb.wtf

Избранные Рок-баллады через торрент pb.wtf

Качают: 1 [ 0 KB/s ]
Размер: 4.31 GB | Добавлен: 7 лет 7 мес. назад | Торрент скачан:174 раза
Смотреть онлайн Избранные Рок-баллады | Скачать    Ребята, помогите собрать деньги на оплату серверов!!!

04-04-2014 15:44 Избранные Рок-баллады Скачать торрент  

Избранные Рок-баллады / My Favorites Rock Ballads (1964-1991)
Год выпуска: 1992
Страна: USA
Жанр: Рок
Продолжительность: ~01:30:00
Перевод: Оригинал

В ролях: Animals, The Rolling Stones, Bonfire.....

Описание: Избранные видеоклипы, собранные из разных источников - редкие экземпляры и достойное пополнение Romantic Collection.
1964_Animals_-_House_Of_The_Rising_Sun.vob
1968_Fleetwood_Mac_-_Man_Of_The_World.vob
1973_The Rolling Stones - Angie.vob
1976_Smokie_-_What_CanI_Do.vob
1978_Gerry_Rafferty_-_Baker_Street.vob
1978_Kansas_-_Dust_In_The_Wind.vob
1980_Uriah.Heep.-_Lady.In.Black__.vob
1982_Survivor - Eye Of The Tiger.vob
1983_The Police - Every Breath You Take.vob
1984_Scorpions - Still Loving You.vob
1984_The Cars - Drive.vob
1986_Journey_-_Why_Can_t_This_Night_Go_On_Forever.vob
1986_Status.Quo._.In.The.Army.No.vob
1987_Whitesnake_-_Is_This_Love_-_720x480.vob
1989_Alannah Myles - Black Velvet.vob
1989_Bonfire_-_Who_s_Foolin_Who.vob
1989_Bonfire_-_You_Make_Me_Feel_(Point_Blank).vob
1989_Kiss_-_Forever.vob
1989_Scorpions_-_Holiday.vob
1990_Alias_-_More_Than_Words_Can_Say.vob
1990_Cinderella_-_Heartbreak_Station.vob
1990_Deep_Purple___Love_Conquers_All.vob
1990_Scorpions - Wind Of Change.vob
1990_Scorpions._.Send.Me.An.Angel.vob
1991_Extreme_-_More_Than_Words.vob
Качество: TVRip
Формат: AVI
Видео кодек: MPEG2
Аудио кодек: AC3
Видео: MPEG2 Video 720x576 (4:3), 25.00fps, 5 303 Kbps
Аудио: Dolby AC3, 48000Hz, stereo, 224kbps
Релиз от: tamegin





General
Complete name : H:\My Favorites Rock Ballads (1964-1991) NNM-Club\1964_Animals_-_House_Of_The_Rising_Sun.vob
Format : MPEG-PS
File size : 179 MiB
Duration : 4mn 26s
Overall bit rate mode : Variable
Overall bit rate : 5 639 Kbps
Writing library : encoded by TMPGEnc Authoring Works 4 Version. 4.0.4.24

Video
ID : 224 (0xE0)
Format : MPEG Video
Format version : Version 2
Format profile : Main@Main
Format settings, BVOP : Yes
Format settings, Matrix : Custom
Format settings, GOP : M=3, N=15
Duration : 4mn 26s
Bit rate mode : Variable
Bit rate : 5 303 Kbps
Maximum bit rate : 8 000 Kbps
Width : 720 pixels
Height : 576 pixels
Display aspect ratio : 4:3
Frame rate : 25.000 fps
Standard : PAL
Color space : YUV
Chroma subsampling : 4:2:0
Bit depth : 8 bits
Scan type : Interlaced
Scan order : Top Field First
Compression mode : Lossy
Bits/(Pixel*Frame) : 0.511
Stream size : 169 MiB (94%)
Writing library : TMPGEnc Authoring Works 4 Version. 4.0.4.24

Audio
ID : 189 (0xBD)-128 (0x80)
Format : AC-3
Format/Info : Audio Coding 3
Mode extension : CM (complete main)
Muxing mode : DVD-Video
Duration : 4mn 26s
Bit rate mode : Constant
Bit rate : 224 Kbps
Channel(s) : 2 channels
Channel positions : Front: L R
Sampling rate : 48.0 KHz
Bit depth : 16 bits
Compression mode : Lossy
Stream size : 7.13 MiB (4%)

Menu

pb.wtf



Скачать Избранные Рок-баллады через торрент https://pic1.kartinco.top/images/61/qoelk.jpg Скачать, смотреть онлайн Избранные Рок-баллады бесплантно в хорошем качестве Описание: Избранные видеоклипы, собранные из разных источников - редкие экземпляры и достойное пополнение Romantic ... 10 10 9
Info! Золотая раздача, скачанное не засчитывается.
Торрент: Зарегистрирован [2014-04-04 15:44] · скачан: 174 раз
Статус: √ проверено
Размер: 4.31 GB
Как cкачать? Как скачать Избранные Рок-баллады через торрент | UTorrent

28-11-2019 20:33  

Отключить всю рекламу на сайте

    Дорогой пользователь! Огромная просьба, поблагодарите релизера, оцените раздачу и оставьте свои комментарий, если Вы скачали Избранные Рок-баллады через торрент бесплатно!
    Комментировать посты могут только пользователи прошедшие не сложную регистрацию
    Показать сообщения:    

    Избранные Рок-баллады через торрент
    Скачать бесплатно Избранные Рок-баллады
    Избранные Рок-баллады скачать торрент
    Избранные Рок-баллады смотреть онлайн
    Cкачать фильм Избранные Рок-баллады бесплатно
    Избранные Рок-баллады скачать торрент в хорошем качестве
    Избранные Рок-баллады смотреть онлайн бесплатно в хорошем качестве


    Вы не можете начинать темы
    Вы не можете отвечать на сообщения
    Вы не можете редактировать свои сообщения
    Вы не можете удалять свои сообщения
    Вы не можете голосовать в опросах
    Вы не можете прикреплять файлы к сообщениям
    Вы можете скачивать файлы