Ссылка на приватное зеркало нашего сайта всего за 1$. Внимание количество ограничено!!!

2 сезон

iTunes

1 сезон

1

iTunes

iTunes

iTunes

1 сезон

RePack

30

ИГРА 18+

pack

ВАЖНО

!!Акция!!

Alien_RageХит недели

RePack

MK11
pack

Забери бонус

RePack

jed

!!Акция!!

Alien_Rage

RePack

fifa19

RePack

Assassins Creed: Odyssey

RePack

NEED FOR SPEED™ PAYBACK

4 сезон

9 сезон

Бесстыжие 9 сезон

Все сериалы

все сериалы на PB.wtf

RePack

FAR CRY 5
  

Презренный / Scorned (Марк Джонс) [2013 г., триллер, HDRip, Любительский двухголосый] pb.wtf

Презренный через торрент pb.wtf

Размер: 1.38 GB | Добавлен: 6 лет 6 мес. назад | Торрент скачан:47 раз
Скачать  

04-04-2014 16:43 Презренный Скачать торрент  

Презренный / Scorned
  • Год выпуска: 2013
  • Страна: США / Horse Head Pictures, ITS Capital, Scorned llc
  • Жанр: триллер
  • Продолжительность: 01:26:22
  • Перевод: Любительский двухголосый (DeadSno & den904)

  • Режиссер: Марк Джонс

  • В ролях:Вива Бьянка, Бруклин Брокау, Даг Драклер, Денис Гласс, Рич Баттиста, Марк Джонс, Сэди Кац, Скотт Книсли, Джо Курак, АннаЛинн МакКорд
  • Описание: Сэди и Кевин решили провести романтичные выходные дни вместе в его доме поблизости у озера. Но когда Сэди случайно узнает, что ее лучшая подруга и Кевин за ее спиной крутили роман, она теряет голову и начинает мстить им обоим.

  • Качество: HDRip
  • Формат: AVI
  • Видео кодек: XviD
  • Аудио кодек: AC3
  • Видео: 720x400 (1.80:1), 23 fps, XviD build 50 ~1840 kbps avg, 0.28 bit/pixel
  • Аудио: 48 kHz, AC3 Dolby Digital, 3/2 (L,C,R,l,r) + LFE ch, ~448 kbps

    Общее
    Полное имя : H:\кино\Scorned.2013.HDRip.avi.avi
    Формат : AVI
    Формат/Информация : Audio Video Interleave
    Размер файла : 1,38 Гбайт
    Продолжительность : 1 ч. 26 м.
    Общий поток : 2293 Кбит/сек
    Название фильма : Scorned.2013.HDRip.avi
    Режиссёр : Rip by coc900
    Программа кодирования : Lavf52.33.0

    Видео
    Идентификатор : 0
    Формат : MPEG-4 Visual
    Профиль формата : Simple@L3
    Параметр BVOP формата : Нет
    Параметр QPel формата : Нет
    Параметр GMC формата : Без точки перехода
    Параметр матрицы формата : Default (H.263)
    Идентификатор кодека : DX50
    Идентификатор кодека/Подсказка : DivX 5
    Продолжительность : 1 ч. 26 м.
    Битрейт : 1840 Кбит/сек
    Ширина : 720 пикселей
    Высота : 400 пикселей
    Соотношение сторон : 16:9
    Частота кадров : 23,000 кадра/сек
    Цветовое пространство : YUV
    Субдискретизация насыщенности : 4:2:0
    Битовая глубина : 8 бит
    Тип развёртки : Прогрессивная
    Метод сжатия : С потерями
    Бит/(Пиксели*Кадры) : 0.278
    Размер потока : 1,11 Гбайт (80%)
    Библиотека кодирования : XviD 1.2.1 (UTC 2008-12-04)

    Аудио
    Идентификатор : 1
    Формат : AC-3
    Формат/Информация : Audio Coding 3
    Расширение режима : CM (complete main)
    Параметр Endianness формата : Big
    Идентификатор кодека : 2000
    Продолжительность : 1 ч. 26 м.
    Вид битрейта : Постоянный
    Битрейт : 448 Кбит/сек
    Каналы : 6 каналов
    Расположение каналов : Front: L C R, Side: L R, LFE
    Частота : 48,0 КГц
    Битовая глубина : 16 бит
    Метод сжатия : С потерями
    Размер потока : 277 Мбайт (20%)
    Выравнивание : Разделение по промежуткам
    Продолжительность промежутка : 500 мс. (11,50 видеокадров)
    Время предзагрузки промежутка : 21500 мс.

    pb.wtf



  • Скачать Презренный через торрент http://pic.kartinco.top/images/6/qpixh.jpg Скачать фильм Презренный через торрент бесплантно в хорошем качестве Описание: Сэди и Кевин решили провести романтичные выходные дни вместе в его доме поблизости у озера. Но когда Сэди случайно узнает, что ее ... 8.7 10 3
    Торрент: Зарегистрирован [2014-04-04 16:43] · скачан: 47 раз
    Статус: T временная
    Размер: 1.38 GB
    Как cкачать? Как скачать Презренный через торрент | qTorrent

    % Раздел Тема Автор DL S | L
    T Фильмы (мультфильмы) cо спонсором показа (Новинки AVI/MKV) [ 4.19 GB ] Грехи презренной жены / Sins of a Scorned Wife [2019 WEB-DL 720p] MVO ["Синема УС"] bober100 Скачать
    1 | 0
    T Фильмы (мультфильмы) cо спонсором показа (Новинки AVI/MKV) [ 1.37 GB ] Грехи презренной жены / Sins of a Scorned Wife [2019 WEB-DLRip] MVO ["Синема УС"] bober100 Скачать
    1 | 0
    T Фильмы 2013 (Звук TS, Cam, VO, DVO) [ 747 MB ] Презренный / Scorned [2013 HDRipЛюбительский [den904 DeadSno] Ворон Скачать
    1 | 0
    Фильмы [HD 720p, 1080p] (Звук Cam, VO, DVO) [ 5.41 GB ] Презренный / Scorned [2013 BDRip 720p] DVO [DeadSno & den904] lug30 Скачать
    1 | 0

    28-11-2019 20:33  

    Отключить всю рекламу на сайте

    04-04-2014 17:49 Презренный Скачать торрент  

    Тупой америкосский сюжет :pleasantry:pb.wtf



    04-04-2014 18:53 Презренный Скачать торрент  

    patapofff
    ты чего то все новые релизы обос_ал.
    доставляет удовольствие?
    создай тему, мы тебе тоже прокомментируем...pb.wtf



    07-04-2014 07:30 Презренный Скачать торрент  

    УГ больше даже писать ничего не хочетсяpb.wtf



      Дорогой пользователь! Огромная просьба, поблагодарите релизера, оцените раздачу и оставьте свои комментарий, если Вы скачали Презренный через торрент бесплатно! Внесите свою лепту в развитие PiratBit!
      Комментировать посты могут только пользователи прошедшие не сложную регистрацию
      Показать сообщения:    

      Презренный через торрент
      Скачать бесплатно Презренный
      Презренный скачать торрент
      Презренный смотреть онлайн
      Cкачать фильм Презренный бесплатно
      Презренный скачать торрент в хорошем качестве
      Презренный смотреть онлайн бесплатно в хорошем качестве


      Вы не можете начинать темы
      Вы не можете отвечать на сообщения
      Вы не можете редактировать свои сообщения
      Вы не можете удалять свои сообщения
      Вы не можете голосовать в опросах
      Вы не можете прикреплять файлы к сообщениям
      Вы можете скачивать файлы