Достать ножи: Стеклянная луковица

MVO

Добыча

Дубляж

Уэнсдэй

1 сезон

Тор

Дубляж

13 клиническая

1 сезон

Жестокая ночь

MVO

Одни из нас

1 сезон

Deluxe

pack

Рекомендуем

30

Пиратка

ВАЖНО

ВАЖНО

Ghostwire

Пиратка

jed

RePack

nioh2

RePack

RDR2

RePack

NEED FOR SPEED™ PAYBACK

RePack

скачать торрент

Кинопоиск HD

Острые козырьки 6 сезон

6 сезон

FAR CRY 6

RePack

скачать торрент

Лицензия

скачать торрент

MVO

1

1 сезон

скачать торрент

1 сезон

скачать торрент

Лицензия

  

Pink Floyd - P.U.L.S.E. Live at Earls Court 20.10.94, London [1994 г., Концертное видео, Музыка, DVDRip]

Pink Floyd - P.U.L.S.E. Live at Earls Court 20.10.94, London через торрент pb.wtf

Размер: 2.77 GB | Добавлен: 8 лет 9 мес. назад | Торрент скачан:213 раз
| Скачать | Поддержите нас   

05-04-2014 04:25 Pink Floyd - P.U.L.S.E. Live at Earls Court 20.10.94, London Скачать торрент  

Pink Floyd - P.U.L.S.E. Live at Earls Court 20.10.94 London
Год выпуска: 1994
Страна: UK
Жанр: Концертное видео, Музыка
Продолжительность: 2:39:00

Премьера в мире: 01.01.1994

Описание: Представленный фильм-концерт документирует турне в поддержку последнего альбома Pink Floyd "Division Bell" и уже издавался в 1995 году - тогда еще в уже устаревшем формате VHS. Основой диска является концерт Pink Floyd, в 1994 году отыгранный на сцене лондонского Earl’s Court. Также в двойной DVD “Pulse” включены живое исполнение альбома "Dark Side Of The Moon", подборка клипов в поддержку "Division Bell" и уникальная версия "Wish You Were Here", исполненная группой вместе с Билли Корганом на церемонии включения Pink Floyd в американский Rock and Roll Hall of Fame.
Part One - 01:12:47

01. Shine On You Crazy Diamond " (Concert version) (Gilmour/Waters/Wright)
02. Learning to Fly " (Gilmour/Moore/Ezrin/Carin)
03. High Hopes " (Gilmour/Samson)
04. Take It Back " (Gilmour/Ezrin/Samson/Laird-Clowes)
05. Coming Back to Life " (Gilmour)
06. Sorrow " (Gilmour)
07. Keep Talking " (Gilmour/Wright/Samson)
08. Another Brick in the Wall (Part 2) " (Waters)
09. One of These Days " (Gilmour/Mason/Waters/Wright)

Part Two - 01:11:27

10. Speak to Me " (Mason)
11. Breathe " (Gilmour/Waters/Wright)
12. On the Run " (Gilmour/Waters)
13. Time " (Gilmour/Mason/Waters/Wright)
14. The Great Gig in the Sky " (Wright/Clare Torry)
15. Money " (Waters)
16. Us and Them " (Waters/Wright)
17. Any Colour You Like " (Gilmour/Mason/Wright)
18. Brain Damage " (Waters)
19. Eclipse " (Waters)
20. Wish You Were Here " (Gilmour/Waters)
21. Comfortably Numb " (Gilmour/Waters)
22. Run Like Hell " (Gilmour/Waters)

Part Three - 00:15:38

23. Say Goodbye to Life As We Know It
Качество: DVDRip
Формат: AVI
Видео кодек: XviD
Аудио кодек: AC3
Видео: MPEG-4, 704x528, 4:3, 1945 Кбит/сек, 25,000 кадр/сек
Аудио#1: AC-3, 448 Кбит/сек, 48,0 КГц, 2 канала




H:\m\Pink.FloydP.U.L.S.E\1Part.One.avi
General
Complete name : H:\m\Pink.FloydP.U.L.S.E\1Part.One.avi
Format : AVI
Format/Info : Audio Video Interleave
File size : 1.22 GiB
Duration : 1h 12mn
Overall bit rate : 2 403 Kbps
Writing application : VirtualDubMod 1.5.4.1 (build 2178/release)
Writing library : VirtualDubMod build 2178/release
Video #0
ID : 0
Format : MPEG-4 Visual
Format profile : Advanced [email protected]
Format settings, BVOP : 1
Format settings, QPel : No
Format settings, GMC : No warppoints
Format settings, Matrix : Custom
Codec ID : XVID
Codec ID/Hint : XviD
Duration : 1h 12mn
Bit rate : 1 945 Kbps
Width : 704 pixels
Height : 528 pixels
Display aspect ratio : 4:3
Frame rate : 25.000 fps
Color space : YUV
Chroma subsampling : 4:2:0
Bit depth : 8 bits
Scan type : Progressive
Compression mode : Lossy
Bits/(Pixel*Frame) : 0.209
Stream size : 1 013 MiB (81%)
Writing library : XviD 1.2.0.dev47 (UTC 2006-11-01)
Audio #1
ID : 1
Format : AC-3
Format/Info : Audio Coding 3
Mode extension : CM (complete main)
Format settings, Endianness : Big
Codec ID : 2000
Duration : 1h 12mn
Bit rate mode : Constant
Bit rate : 448 Kbps
Channel(s) : 2 channels
Channel positions : Front: L R
Sampling rate : 48.0 KHz
Bit depth : 16 bits
Compression mode : Lossy
Stream size : 233 MiB (19%)
Alignment : Split accross interleaves
Interleave, duration : 40 ms (1.00 video frame)
Interleave, preload duration : 500 ms




Скачать Pink Floyd - P.U.L.S.E. Live at Earls Court 20.10.94, London через торрент https://pic1.kartinco.top/images/61/3prx3.jpg Скачать, смотреть онлайн Pink Floyd - P.U.L.S.E. Live at Earls Court 20.10.94, London [1994 г., Концертное видео, Музыка, DVDRip] бесплантно в хорошем качестве Описание: Представленный фильм-концерт документирует турне в поддержку последнего альбома Pink Floyd "Division Bell" и уже издавался в 1995 ... 9.8 10 15
Info! Золотая раздача, скачанное не засчитывается.
Торрент: Зарегистрирован [2014-04-05 04:25] · скачан: 213 раз
Статус: √ проверено
Размер: 2.77 GB
Как cкачать? Как скачать Pink Floyd - P.U.L.S.E. Live at Earls Court 20.10.94, London через торрент | UTorrent

28-11-2019 20:33  


Отключить вcю реклaмy на сайте, в т.ч. и в плеере онлайн просмотра!

    Дорогой пользователь! Огромная просьба, поблагодарите релизера, оцените раздачу и оставьте свои комментарий, если Вы скачали Pink Floyd - P.U.L.S.E. Live at Earls Court 20.10.94, London через торрент бесплатно!!
    Комментировать посты могут только пользователи прошедшие не сложную регистрацию
    Показать сообщения:    


    Pink Floyd - P.U.L.S.E. Live at Earls Court 20.10.94, London через торрент
    Скачать бесплатно Pink Floyd - P.U.L.S.E. Live at Earls Court 20.10.94, London
    Pink Floyd - P.U.L.S.E. Live at Earls Court 20.10.94, London скачать торрент
    Pink Floyd - P.U.L.S.E. Live at Earls Court 20.10.94, London смотреть онлайн
    Cкачать фильм Pink Floyd - P.U.L.S.E. Live at Earls Court 20.10.94, London бесплатно
    Pink Floyd - P.U.L.S.E. Live at Earls Court 20.10.94, London скачать торрент в хорошем качестве
    Pink Floyd - P.U.L.S.E. Live at Earls Court 20.10.94, London смотреть онлайн бесплатно в хорошем качестве
    Вы не можете начинать темы
    Вы не можете отвечать на сообщения
    Вы не можете редактировать свои сообщения
    Вы не можете удалять свои сообщения
    Вы не можете голосовать в опросах
    Вы не можете прикреплять файлы к сообщениям
    Вы можете скачивать файлы
    Pink Floyd - P.U.L.S.E. Live at Earls Court 20.10.94, London [1994 г., Концертное видео, Музыка, DVDRip] смотреть онлайн, скачать торрент picoco.icu