MEGA SALE -50% FORZA HORIZON 4 ULTIMATE+ВСЕ DLC+ОНЛАЙН всего за 599р. 299 руб. (супер цена). Внимание количество ограничено!!!

iTunes

1+1

iTunes

мы

iTunes

1

iTunes

Чернобыль

iTunes

Ральф против интернета

Лицензия

ПШазам

Лицензия

Игра престолов

Лицензия

30
pack

ВАЖНО

!!Акция!!

Alien_RageХит недели

RePack

Resident Evil 21

ИГРА 18+

pack

RePack

Metro:Exodus

!!Акция!!

Alien_Rage

RePack

fifa19

RePack

Assassins Creed: Odyssey

RePack

NEED FOR SPEED™ PAYBACK

3 сезон

9 сезон

Бесстыжие 9 сезон

Все сериалы

все сериалы на PB.wtf

RePack

FAR CRY 5
Ребята, катастрофически не хватает 7730р. для оплаты серверов за АВГУСТ (всвязи с блокировками трафик упал в 3 раза), 1-2р., выручайте.
  

Солист / The Soloist (Джо Райт / Joe Wright) [2009, Великобритания, США, Франция, драма, биография, музыка, BDRip,Профессиональный [Дубляж ] pb.wtf

Солист через торрент pb.wtf

Размер: 2.18 GB | Добавлен: 5 лет 5 мес. назад | Торрент скачан:94 раза
Скачать  

05-04-2014 10:18 Солист Скачать торрент  

Солист / The Soloist
Год выпуска: 2009
Страна: Великобритания, США, Франция
Жанр: драма, биография, музыка
Продолжительность: 01:57:01
Перевод: Профессиональный [Дубляж] + оригинал
Субтитры: Нет

Режиссер: Джо Райт / Joe Wright
В ролях: Джейми Фокс (Nathaniel Ayers), Роберт Дауни мл. (Steve Lopez), Кэтрин Кинер (Mary Weston), Том Холландер (Graham Claydon), Лиза Гэй Хэмилтон (Jennifer Ayers), Нелсан Эллис (David Carter), Рэйчел Харрис (Leslie Bloom), Стивен Рут (Curt Reynolds), Лоррейн Туссен (Flo Ayers), Джастин Мартин (Young Nathaniel), Кокаи Ампа (Bernie Carpenter), Патрик Таттен (Paul Jr.)

Описание:
Журналист Стив Лопес встречает Натаниеля Айерса, бывшего виртуозного музыканта, вынужденного играть на виолончели на улицах Лос-Анджелеса. Лопес пытается помочь бездомному вернуться к нормальной жизни, и между ними возникает уникальная дружба, которая меняет судьбу обоих.

kinopoisk.ru: 7.318 (9283)
imdb.com: 6.70 (37 334)
MPAA: PG-13 - Детям до 13 лет просмотр не желателен

Качество: BDRip
Формат: AVI
Видео кодек: XviD
Аудио кодек: AC3
Видео: XviD, 720x304 (2.35:1), 1819 kbps, 23,976 fps, 0,347 bpp
Аудио дубляж: AC3 / 5.1 / 48 kHz / 448 kbps / 16 bit
Аудио оригинал: AC3 / 5.1 / 48 kHz / 384 kbps / 16 bit

Релиз от
Автор рипа: Orbit
General
Complete name : E:\закачки\Solist.2009.DUAL.BDRip.XviD.AC3.-HQCLUB.avi
Format : AVI
Format/Info : Audio Video Interleave
Format profile : OpenDML
File size : 2.18 GiB
Duration : 1h 57mn
Overall bit rate : 2 670 Kbps
Movie name : Solist.2009.DUAL.BDRip.XviD.AC3.-HQCLUB
Director : Orbit
Writing application : VirtualDubMod 1.5.10.2 (build 2542/release)
Copyright : hqclub.net
Comment : 08.07.2010

Video
ID : 0
Format : MPEG-4 Visual
Format profile : Advanced Simple@L5
Format settings, BVOP : 1
Format settings, QPel : No
Format settings, GMC : No warppoints
Format settings, Matrix : Custom
Codec ID : XVID
Codec ID/Hint : XviD
Duration : 1h 57mn
Bit rate : 1 820 Kbps
Width : 720 pixels
Height : 304 pixels
Display aspect ratio : 2.35:1
Frame rate : 23.976 fps
Color space : YUV
Chroma subsampling : 4:2:0
Bit depth : 8 bits
Scan type : Progressive
Compression mode : Lossy
Bits/(Pixel*Frame) : 0.347
Stream size : 1.49 GiB (68%)
Writing library : XviD 1.2.1 (UTC 2008-12-04)

Audio #1
ID : 1
Format : AC-3
Format/Info : Audio Coding 3
Mode extension : CM (complete main)
Codec ID : 2000
Duration : 1h 57mn
Bit rate mode : Constant
Bit rate : 448 Kbps
Channel(s) : 6 channels
Channel positions : Front: L C R, Side: L R, LFE
Sampling rate : 48.0 KHz
Bit depth : 16 bits
Compression mode : Lossy
Stream size : 375 MiB (17%)
Alignment : Split accross interleaves
Interleave, duration : 42 ms (1.00 video frame)
Interleave, preload duration : 500 ms

Audio #2
ID : 2
Format : AC-3
Format/Info : Audio Coding 3
Mode extension : CM (complete main)
Codec ID : 2000
Duration : 1h 57mn
Bit rate mode : Constant
Bit rate : 384 Kbps
Channel(s) : 6 channels
Channel positions : Front: L C R, Side: L R, LFE
Sampling rate : 48.0 KHz
Bit depth : 16 bits
Compression mode : Lossy
Stream size : 321 MiB (14%)
Alignment : Split accross interleaves
Interleave, duration : 42 ms (1.00 video frame)
Interleave, preload duration : 500 ms
Сюжет основан на реальной истории жизни музыканта Натаниеля Айерса. Карьера молодого виртуоза-виолончелиста Айерса прерывается, когда он заболевает шизофренией. Многие годы спустя о бездомном музыканте узнаёт журналист Лос-Анджелес Таймс, результатом их общения становится серия статей.
В фильме Стив Лопес показан разведённым, хотя на самом деле репортёр всю свою жизнь до настоящего времени пребывал в счастливом и благополучном браке. По словам самого журналиста, это показалось ему довольно странным, но он посчитал намного более важным то, насколько аккуратно были отображены его статьи и профессиональная деятельность.
Большинство показанных в фильме бездомных людей на самом деле не имели никакого постоянного крова над головой.
Часть сцен была снята в одном из районов Лос-Анджелеса Скид Роу, известном как самое большое в стране пристанище бездомных людей.
В сцене, когда Натаниэль Айерс и Стив Лопес посещают репетицию концерта, все сидения покрыты брезентом. Такой подход является обычной практикой многих концертных аудиторий во время репетиций, поскольку считается, что в этом случае звучание будет более аккуратным.
Сам Натаниэль Айерс появляется в камере в качестве одного из зрителей, сидящего в переднем ряду, на концерте в самом конце фильма.
Создатели картины пригласили Натаниэля Айерса посетить съёмки в концертном зале Walt Disney Central Hall в Лос-Анджелесе, но музыкант в этот день предпочёл остаться на улице и играть там.
Несмотря на свою стойкую нелюбовь к изображению на экране Натаниэль Айерс посетил вместе со своей прилетевшей ради такого случая семьёй премьеру фильма в Лос-Анджелесе. Сам он крайне редко смотрит телевизор и кино.
Несколько членов лос-анджелесской благотворительной общественной организации Lamp Community, которая занимается помощью бездомным и психически больным людям, появились в фильме в эпизодических ролях, посетили его премьеру и организованную по завершении её вечеринку. Сам Натаниэль Айерс находится под опекой этой организации и получает от неё регулярную помощь.
Первоначально премьера фильма была запланирована на ноябрь 2008 года, но обеспокоенная слишком плотным графиком релизов студия Paramount Pictures перенесла выход на экраны на апрель 2009 года.
Это уже не первый раз, когда Роберт Дауни младший играет в фильме реального газетного репортёра. До этого ему довелось сыграть репортёра газеты «Сан-Франциско Кроникл» Пола Эвери в картине «Зодиак» (2007).
pb.wtf



Скачать Солист через торрент http://st.kp.yandex.net/images/film_big/394382.jpg Скачать фильм Солист через торрент бесплантно в хорошем качестве Описание: Журналист Стив Лопес встречает Натаниеля Айерса, бывшего виртуозного музыканта, вынужденного играть на виолончели на улицах ... 10 10 4
Торрент: Зарегистрирован [2014-04-05 10:18] · скачан: 94 раз
Статус: √ проверено
Размер: 2.18 GB
Как cкачать? Как скачать Солист через торрент | qTorrent

% Раздел Тема Автор DL S | L
Фильмы 2009 [ 1.37 GB ] Солист / Soloist The [2009 музыка биография HDRip] DEVI Скачать
2 | 0


>> Регистрируемся здесь <<






Отзывы и комментарии о схеме читаем и пишем здесь: ---> Отзывы и комментарии о схеме

Новые благодарочки в телеграм довольных пользователей:
скриншот   скриншот   скриншот   скриншот   скриншот
    Дорогой пользователь! Огромная просьба, поблагодарите релизера, оцените раздачу и оставьте свои комментарий, если Вы скачали Солист через торрент бесплатно! Внесите свою лепту в развитие PiratBit!
    Комментировать посты могут только пользователи прошедшие не сложную регистрацию
    Показать сообщения:    

    Солист через торрент
    Скачать бесплатно Солист
    Солист скачать торрент
    Солист смотреть онлайн
    Cкачать фильм Солист бесплатно
    Солист скачать торрент в хорошем качестве
    Солист смотреть онлайн бесплатно в хорошем качестве


    Вы не можете начинать темы
    Вы не можете отвечать на сообщения
    Вы не можете редактировать свои сообщения
    Вы не можете удалять свои сообщения
    Вы не можете голосовать в опросах
    Вы не можете прикреплять файлы к сообщениям
    Вы можете скачивать файлы