2 сезон

iTunes

1 сезон

1

iTunes

iTunes

iTunes

1 сезон

RePack

30

ИГРА 18+

pack

ВАЖНО

!!Акция!!

Alien_RageХит недели

RePack

MK11
pack

Забери бонус

RePack

jed

!!Акция!!

Alien_Rage

RePack

fifa19

RePack

Assassins Creed: Odyssey

RePack

NEED FOR SPEED™ PAYBACK

4 сезон

9 сезон

Бесстыжие 9 сезон

Все сериалы

все сериалы на PB.wtf

RePack

FAR CRY 5
  

Добро пожаловать в капкан / Welcome to the Punch (Эрен Криви / Eran Creevy) [2013, Великобритания, США, боевик, триллер, криминал, BDRip 720p,Профессиональный [Дубляж] pb.wtf

Добро пожаловать в капкан через торрент pb.wtf

Размер: 5.76 GB | Добавлен: 6 лет 6 мес. назад | Торрент скачан:256 раз
Скачать  

05-04-2014 10:44 Добро пожаловать в капкан Скачать торрент  

Добро пожаловать в капкан / Welcome to the Punch

  • Год выпуска: 2013
  • Страна:Великобритания, США
  • Жанр:боевик, триллер, криминал
  • Продолжительность:01:23:55
  • Перевод:Профессиональный [Дубляж Т_Н_Т] + Авторский одноголосый (А.Дольский)+ Авторский одноголосый (А.Гаврилов) + любительский одноголосый (lord666)
  • Субтитры: Русский, Английский
  • Режиссер: Эрен Криви / Eran Creevy
  • В ролях:

    Джеймс МакЭвой (Max Lewinsky), Марк Стронг (Jacob Sternwood), Андреа Райзборо (Sarah Hawks), Джонни Харрис (Dean Warns), Дэниэл Мейс (Nathan Bartnick), Дэвид Моррисси (Thomas Geiger), Питер Муллан (Roy Edwards), Наташа Литтл (Jane Badham), Дэниэл Калуя (Juka Ogadowa), Рут Шин (Iris Warns), Джейсон Флеминг (Harvey Crown), Элиес Габел (Ruan Sternwood)

    • Описание:
      Бывший преступник Джейкоб Стернбуд вынужден вернуться в Лондон из своего убежища, когда его сын вовлечен в ограбление пошедшее не так. У детектива Макса Левински появляется шанс поймать человека, которому всегда удавалось уйти. Соперники снова меряются силами, но они сталкиваются с более глубоким преступным заговором, с которым вынуждены бороться, чтобы выжить.

    Мировая премьера:24 февраля 2013

    • Качество: BDRip 720p [TayTO]
    • Формат: MKV
    • Видео кодек: AVC
    • Аудио кодек:AC3-DTS
    • Видео: ~ 5120 Кбит/сек-1280 x 534 (2.397) at 23.976 fps : 0.312 Bits/Pixel
    • Аудио: AC3 192 Кбит/сек (2ch), 48,0 КГц, 16 бит [Русский, Дубляж]
    • Аудио: AC3 448 Кбит/сек (6ch), 48,0 КГц, 16 бит [Русский, AVO А.Дольский]
    • Аудио: AC3 448 Кбит/сек (6ch), 48,0 КГц, 16 бит [Русский, AVO А.Гаврилов]
    • Аудио: AC3 384 Кбит/сек (6ch), 48,0 КГц, 16 бит [Русский, VO lord666]
    • Аудио: DTS 1509 Кбит/сек (6ch), 48,0 КГц, 24 бит [Английский]
    • Дополнительно: Сохранены оригинальные чаптеры как на Blu-ray



    Код:

    никальный идентификатор                 : 228085451490939509720904684422416671130 (0xAB97A8FBB1B5391792B999D52859A19A)
    Полное имя                               : F:\Dobro.pozhalovat.v.kapkan.2013.D.BDRip.720p.NNM-CLUB.mkv
    Формат                                   : Matroska
    Версия формата                           : Version 2
    Размер файла                             : 5,76 Гбайт
    Продолжительность                        : 1 ч. 39 м.
    Общий поток                              : 8266 Кбит/сек
    Название фильма                          : Welcome to the Punch 2013 720p BluRay DTS x264-TayTO
    Дата кодирования                         : UTC 2014-03-30 15:49:11
    Программа кодирования                    : mkvmerge v2.9.9 ('Tutu') built on Nov 25 2009 21:13:32
    Библиотека кодирования                   : libebml v0.7.9 + libmatroska v0.8.1

    Видео
    Идентификатор                            : 1
    Формат                                   : AVC
    Формат/Информация                        : Advanced Video Codec
    Профиль формата                          : High@L4.1
    Параметр CABAC формата                   : Да
    Параметр ReFrames формата                : 12 кадров
    Идентификатор кодека                     : V_MPEG4/ISO/AVC
    Продолжительность                        : 1 ч. 39 м.
    Битрейт                                  : 5120 Кбит/сек
    Ширина                                   : 1280 пикселей
    Высота                                   : 534 пикселя
    Соотношение сторон                       : 2,40:1
    Режим частоты кадров                     : Постоянный
    Частота кадров                           : 23,976 кадра/сек
    Цветовое пространство                    : YUV
    Субдискретизация насыщенности            : 4:2:0
    Битовая глубина                          : 8 бит
    Тип развёртки                            : Прогрессивная
    Бит/(Пиксели*Кадры)                      : 0.312
    Размер потока                            : 3,57 Гбайт (62%)
    Заголовок                                : -=Release for NNM-CLUB.RU=-
    Библиотека кодирования                   : x264 core 135 r2345 f0c1c53
    Настройки программы                      : cabac=1 / ref=12 / deblock=1:-3:-3 / analyse=0x3:0x133 / me=tesa / subme=11 / psy=1 / psy_rd=1.00:0.00 / mixed_ref=1 / me_range=16 / chroma_me=1 / trellis=2 / 8x8dct=1 / cqm=0 / deadzone=21,11 / fast_pskip=0 / chroma_qp_offset=-2 / threads=12 / lookahead_threads=2 / sliced_threads=0 / nr=0 / decimate=1 / interlaced=0 / bluray_compat=0 / constrained_intra=0 / bframes=7 / b_pyramid=2 / b_adapt=2 / b_bias=0 / direct=3 / weightb=1 / open_gop=0 / weightp=2 / keyint=250 / keyint_min=23 / scenecut=40 / intra_refresh=0 / rc=crf / mbtree=0 / crf=16.0 / qcomp=0.75 / qpmin=0 / qpmax=69 / qpstep=4 / ip_ratio=1.40 / pb_ratio=1.30 / aq=1:0.75
    Язык                                     : English
    Default                                  : Нет
    Forced                                   : Нет
    Коэффициенты матрицы                     : BT.709

    Аудио #1
    Идентификатор                            : 2
    Формат                                   : AC-3
    Формат/Информация                        : Audio Coding 3
    Расширение режима                        : CM (complete main)
    Параметр Endianness формата              : Big
    Идентификатор кодека                     : A_AC3
    Продолжительность                        : 1 ч. 39 м.
    Вид битрейта                             : Постоянный
    Битрейт                                  : 192 Кбит/сек
    Каналы                                   : 2 канала
    Расположение каналов                     : Front: L R
    Частота                                  : 48,0 КГц
    Битовая глубина                          : 16 бит
    Метод сжатия                             : С потерями
    Размер потока                            : 137 Мбайт (2%)
    Заголовок                                : AC3.192.Kbps (2ch) Russian (Дубляж «iLine»)
    Язык                                     : Russian
    Default                                  : Нет
    Forced                                   : Нет

    Аудио #2
    Идентификатор                            : 3
    Формат                                   : AC-3
    Формат/Информация                        : Audio Coding 3
    Расширение режима                        : CM (complete main)
    Параметр Endianness формата              : Big
    Идентификатор кодека                     : A_AC3
    Продолжительность                        : 1 ч. 39 м.
    Вид битрейта                             : Постоянный
    Битрейт                                  : 448 Кбит/сек
    Каналы                                   : 6 каналов
    Расположение каналов                     : Front: L C R, Side: L R, LFE
    Частота                                  : 48,0 КГц
    Битовая глубина                          : 16 бит
    Метод сжатия                             : С потерями
    Размер потока                            : 320 Мбайт (5%)
    Заголовок                                : AC3.448.Kbps (6ch) Russian (AVO А.Гаврилов)
    Язык                                     : Russian
    Default                                  : Нет
    Forced                                   : Нет

    Аудио #3
    Идентификатор                            : 4
    Формат                                   : AC-3
    Формат/Информация                        : Audio Coding 3
    Расширение режима                        : CM (complete main)
    Параметр Endianness формата              : Big
    Идентификатор кодека                     : A_AC3
    Продолжительность                        : 1 ч. 39 м.
    Вид битрейта                             : Постоянный
    Битрейт                                  : 448 Кбит/сек
    Каналы                                   : 6 каналов
    Расположение каналов                     : Front: L C R, Side: L R, LFE
    Частота                                  : 48,0 КГц
    Битовая глубина                          : 16 бит
    Метод сжатия                             : С потерями
    Размер потока                            : 320 Мбайт (5%)
    Заголовок                                : AC3.448.Kbps (6ch) Russian (AVO A.Дольский)
    Язык                                     : Russian
    Default                                  : Нет
    Forced                                   : Нет

    Аудио #4
    Идентификатор                            : 5
    Формат                                   : AC-3
    Формат/Информация                        : Audio Coding 3
    Расширение режима                        : CM (complete main)
    Параметр Endianness формата              : Big
    Идентификатор кодека                     : A_AC3
    Продолжительность                        : 1 ч. 39 м.
    Вид битрейта                             : Постоянный
    Битрейт                                  : 384 Кбит/сек
    Каналы                                   : 6 каналов
    Расположение каналов                     : Front: L C R, Side: L R, LFE
    Частота                                  : 48,0 КГц
    Битовая глубина                          : 16 бит
    Метод сжатия                             : С потерями
    Размер потока                            : 274 Мбайт (5%)
    Заголовок                                : AC3.384Kbps (6ch) Russian (lord666)
    Язык                                     : Russian
    Default                                  : Нет
    Forced                                   : Нет

    Аудио #5
    Идентификатор                            : 6
    Формат                                   : DTS
    Формат/Информация                        : Digital Theater Systems
    Режим                                    : 16
    Параметр Endianness формата              : Big
    Идентификатор кодека                     : A_DTS
    Продолжительность                        : 1 ч. 39 м.
    Вид битрейта                             : Постоянный
    Битрейт                                  : 1509 Кбит/сек
    Каналы                                   : 6 каналов
    Расположение каналов                     : Front: L C R, Side: L R, LFE
    Частота                                  : 48,0 КГц
    Битовая глубина                          : 24 бит
    Метод сжатия                             : С потерями
    Задержка видео                           : 11 мс.
    Размер потока                            : 1,05 Гбайт (18%)
    Заголовок                                : DTS.1509.Kbps (6ch) English
    Язык                                     : English
    Default                                  : Нет
    Forced                                   : Нет

    Текст #1
    Идентификатор                            : 7
    Формат                                   : UTF-8
    Идентификатор кодека                     : S_TEXT/UTF8
    Идентификатор кодека/Информация          : UTF-8 Plain Text
    Заголовок                                : Russian (Full)
    Язык                                     : Russian
    Default                                  : Нет
    Forced                                   : Нет

    Текст #2
    Идентификатор                            : 8
    Формат                                   : UTF-8
    Идентификатор кодека                     : S_TEXT/UTF8
    Идентификатор кодека/Информация          : UTF-8 Plain Text
    Заголовок                                : English (Full)
    Язык                                     : English
    Default                                  : Нет
    Forced                                   : Нет

    Меню
    00:00:00.000                             : en:00:00:00.000
    00:08:29.259                             : en:00:08:29.259
    00:15:54.745                             : en:00:15:54.745
    00:25:26.567                             : en:00:25:26.567
    00:32:20.355                             : en:00:32:20.355
    00:41:14.430                             : en:00:41:14.430
    00:49:53.616                             : en:00:49:53.616
    01:00:20.075                             : en:01:00:20.075
    01:08:27.270                             : en:01:08:27.270
    01:14:00.519                             : en:01:14:00.519
    01:23:20.787                             : en:01:23:20.787
    01:32:21.703                             : en:01:32:21.703

    Скриншоты:

    Каталог Новинок (Фильмы-трейлеры, Игры, Сериалы, Мультфильмы)

    © Оформление by Raven
    pb.wtf



  • Скачать Добро пожаловать в капкан через торрент http://i68.fastpic.ru/big/2015/0115/0f/3b9297b28592496c8f650aceeff5130f.png Скачать фильм Добро пожаловать в капкан через торрент бесплантно в хорошем качестве Описание:Бывший преступник Джейкоб Стернбуд вынужден вернуться в Лондон из своего убежища, когда его сын вовлечен в ограбление пошедшее не ... 9.7 10 6
    Торрент: Зарегистрирован [2014-04-05 10:44] · скачан: 256 раз
    Статус: √ проверено
    Размер: 5.76 GB
    Как cкачать? Как скачать Добро пожаловать в капкан через торрент | qTorrent

    % Раздел Тема Автор DL S | L
    Фильмы [HD 720p, 1080p] (Хороший звук DUB, MVO) [ 9.84 GB ] Добро пожаловать в капкан / Welcome to the Punch [2013 BDRip 1080p [] Ворон Скачать
    1 | 0
    # Фильмы 2013 [DVDrip, WEB-DLRip, HDrip] [ 2.07 GB ] Добро пожаловать в капкан / Welcome to the Punch [2013 HDRip ""] coc900 Скачать
    1 | 0
    Фильмы [HD 720p, 1080p] (Хороший звук DUB, MVO) [ 11.03 GB ] Добро пожаловать в капкан / Welcome to the Punch [2013 BDRip 1080p Дублированное [] Ворон Скачать
    1 | 0
    Фильмы 2012 [ 2.23 GB ] Добро пожаловать в капкан / Welcome to the Punch [2013 BDRip-AVC] Dub potroks Скачать
    1 | 0
    Фильмы 2013 [DVDrip, WEB-DLRip, HDrip] [ 2.19 GB ] Добро пожаловать в капкан / Welcome to the Punch [2012 HDRip [ ]+AVO+VO Ворон Скачать
    1 | 0
    Фильмы 2013 [DVDrip, WEB-DLRip, HDrip] [ 1.36 GB ] Добро пожаловать в капкан / Welcome to the Punch [2013 HDRip] DUB diletant Скачать
    1 | 0
    Фильмы с авторской озвучкой [ 1.46 GB ] Добро пожаловать в капкан / Welcome to the Punch [2013 HDRip] [AVO] killermax2013 Скачать
    1 | 0

    28-11-2019 20:33  

    Отключить всю рекламу на сайте

      Дорогой пользователь! Огромная просьба, поблагодарите релизера, оцените раздачу и оставьте свои комментарий, если Вы скачали Добро пожаловать в капкан через торрент бесплатно! Внесите свою лепту в развитие PiratBit!
      Комментировать посты могут только пользователи прошедшие не сложную регистрацию
      Показать сообщения:    

      Добро пожаловать в капкан через торрент
      Скачать бесплатно Добро пожаловать в капкан
      Добро пожаловать в капкан скачать торрент
      Добро пожаловать в капкан смотреть онлайн
      Cкачать фильм Добро пожаловать в капкан бесплатно
      Добро пожаловать в капкан скачать торрент в хорошем качестве
      Добро пожаловать в капкан смотреть онлайн бесплатно в хорошем качестве


      Вы не можете начинать темы
      Вы не можете отвечать на сообщения
      Вы не можете редактировать свои сообщения
      Вы не можете удалять свои сообщения
      Вы не можете голосовать в опросах
      Вы не можете прикреплять файлы к сообщениям
      Вы можете скачивать файлы