Мега распродажа FORZA HORIZON 4 ULTIMATE+ВСЕ DLC+ОНЛАЙН всего за 499р. 349 руб. (супер цена). Внимание количество ограничено!!!

Лицензия

30

iTunes

мы

iTunes

1

1 сезон

Чернобыль

1 сезон

Ральф против интернета

MVO

Покемон. Детектив Пикачу

8 сезон

Игра престолов

iTunes

1+1

ИГРА 18+

pack

ВАЖНО

!!Акция!!

Alien_RageХит недели

RePack

Resident Evil 21
pack

RePack

Metro:Exodus

!!Акция!!

Alien_Rage

RePack

fifa19

RePack

Assassins Creed: Odyssey

RePack

NEED FOR SPEED™ PAYBACK

3 сезон

9 сезон

Бесстыжие 9 сезон

Все сериалы

все сериалы на PB.wtf

RePack

FAR CRY 5
Ребята, катастрофически не хватает 2730р. для оплаты серверов за МАЙ (всвязи с блокировками трафик упал в 3 раза), 1-2р., выручайте.
  

ЗащитнеГ / Defendor (Питер Стеббингс / Peter Stebbings) [2009, Канада, США, Великобритания, драма, комедия, криминал, BDRip,Профессиональный (многоголосый, закадровый) pb.wtf

ЗащитнеГ через торрент pb.wtf

Качают: 1 [ 0 KB/s ]
Размер: 2.18 GB | Добавлен: 5 лет 2 мес. назад | Торрент скачан:122 раза
Скачать  

05-04-2014 11:52 ЗащитнеГ Скачать торрент  

ЗащитнеГ / Defendor
Год выпуска: 2009
Страна: Канада, США, Великобритания
Жанр: драма, комедия, криминал
Продолжительность: 01:41:23
Перевод: Профессиональный (многоголосый, закадровый) + Оригинал
Субтитры: Нет

Режиссер: Питер Стеббингс / Peter Stebbings
В ролях: Вуди Харрельсон (Arthur Poppington / Defendor), Элиас Котеас (Sgt. Chuck Dooney), Майкл Келли (Paul Carter), Сандра О (Dr. Ellen Park), Кэт Деннингс (Katerina Debrofkowitz), Кларк Джонсон (Capt. Roger Fairbanks), Лиза Рэй (Dominique Ball), Алан С. Петерсон (Radovan Kristic), Кристин Бут (Wendy Carter), Шарлотта Салливан (Fay), Тони Наппо (Biker Cliff), Рон Уайт (Judge Wilson)

Описание:
Простой парень Артур Поппингтон решает, что он супергерой Защитник, и каждую ночь, напялив тугие лосины, отправляется на улицы города в поисках своего главного врага Капитана Индастри - наркодилера, которого Артур ошибочно винит в смерти матери. Однако вместо Индастри герой встречает молодую проститутку и вместе с ней, а также при моральной поддержке своего лечащего психиатра, «доказывает, что каждый способен сделать мир лучше».

Рейтинг
kinopoisk.ru: 6.829 (6999)
imdb.com: 6.90 (27 578)
MPAA: R - Лицам до 17 лет обязательно присутствие взрослого

Качество: BDRip
Формат: AVI
Видео кодек: XviD
Аудио кодек: AC3
Видео: XviD, 720x304 (2.35:1), 2171 kbps, 23,976 fps, 0,414 bpp
Аудио Russian: AC3 / 5.1 / 48 kHz / 448 kbps / 16 bit
Аудио English: AC3 / 5.1 / 48 kHz / 448 kbps / 16 bit

General
Complete name : E:\закачки\Zawitheg.2009.DUAL.BDRip.XviD.AC3.-HQCLUB.avi
Format : AVI
Format/Info : Audio Video Interleave
Format profile : OpenDML
File size : 2.18 GiB
Duration : 1h 41mn
Overall bit rate : 3 085 Kbps
Movie name : ЗащитнеГ / Defendor (2009)
Director : DaniLch
Genre : Comedy/Drama/Crime
Writing application : VirtualDubMod 1.5.10.2 (build 2542/release)
Copyright : http://hqclub.net/
Comment : R.G. HQCLUB

Video
ID : 0
Format : MPEG-4 Visual
Format profile : Advanced Simple@L5
Format settings, BVOP : 1
Format settings, QPel : No
Format settings, GMC : No warppoints
Format settings, Matrix : Default (MPEG)
Codec ID : XVID
Codec ID/Hint : XviD
Duration : 1h 41mn
Bit rate : 2 171 Kbps
Width : 720 pixels
Height : 304 pixels
Display aspect ratio : 2.35:1
Frame rate : 23.976 fps
Color space : YUV
Chroma subsampling : 4:2:0
Bit depth : 8 bits
Scan type : Progressive
Compression mode : Lossy
Bits/(Pixel*Frame) : 0.414
Stream size : 1.54 GiB (70%)
Writing library : XviD 1.2.1 (UTC 2008-12-04)

Audio #1
ID : 1
Format : AC-3
Format/Info : Audio Coding 3
Mode extension : CM (complete main)
Codec ID : 2000
Duration : 1h 41mn
Bit rate mode : Constant
Bit rate : 448 Kbps
Channel(s) : 6 channels
Channel positions : Front: L C R, Side: L R, LFE
Sampling rate : 48.0 KHz
Bit depth : 16 bits
Compression mode : Lossy
Stream size : 325 MiB (15%)
Alignment : Split accross interleaves
Interleave, duration : 42 ms (1.00 video frame)
Interleave, preload duration : 500 ms

Audio #2
ID : 2
Format : AC-3
Format/Info : Audio Coding 3
Mode extension : CM (complete main)
Codec ID : 2000
Duration : 1h 41mn
Bit rate mode : Constant
Bit rate : 448 Kbps
Channel(s) : 6 channels
Channel positions : Front: L C R, Side: L R, LFE
Sampling rate : 48.0 KHz
Bit depth : 16 bits
Compression mode : Lossy
Stream size : 325 MiB (15%)
Alignment : Split accross interleaves
Interleave, duration : 42 ms (1.00 video frame)
Interleave, preload duration : 500 ms
Релиз от
Автор рипа: DaniLch
pb.wtf



Скачать ЗащитнеГ через торрент http://img.hqclub.net/images/fd471f8582e7e71ac3982906010b40c7.png Скачать фильм ЗащитнеГ через торрент бесплантно в хорошем качестве Описание: Простой парень Артур Поппингтон решает, что он супергерой Защитник, и каждую ночь, напялив тугие лосины, отправляется на улицы ... 5 10 1
Торрент: Зарегистрирован [2014-04-05 11:52] · скачан: 122 раз
Статус: √ проверено
Размер: 2.18 GB
Как cкачать? Как скачать ЗащитнеГ через торрент | qTorrent

% Раздел Тема Автор DL S | L
Фильмы (Blu-ray, BD-Remux, HDDVD) [ 16.39 GB ] ЗащитнеГ / Defendor [2009 MVO СТ / Blu-Ray Remux ] кэп Скачать
1 | 0
Фильмы (DVD фильмы) [ 4.34 GB ] ЗащитнеГ / Defendor [2009 DVD5 лицензия] nickson-82 Скачать
1 | 0
Фильмы 2009 [ 7.95 GB ] ЗащитнеГ / Defendor [2009 ] Anonymous Скачать
1 | 0
Фильмы 2009 [ 1.37 GB ] Защитнег / Defendor [2009 DVDRip] SD Скачать
1 | 0


>> Регистрируемся здесь <<






Отзывы и комментарии о схеме читаем и пишем здесь: ---> Отзывы и комментарии о схеме

Новые благодарочки в телеграм довольных пользователей:
скриншот   скриншот   скриншот   скриншот   скриншот
    Дорогой пользователь! Огромная просьба, поблагодарите релизера, оцените раздачу и оставьте свои комментарий, если Вы скачали ЗащитнеГ через торрент бесплатно! Внесите свою лепту в развитие PiratBit!
    Комментировать посты могут только пользователи прошедшие не сложную регистрацию
    Показать сообщения:    

    ЗащитнеГ через торрент
    Скачать бесплатно ЗащитнеГ
    ЗащитнеГ скачать торрент
    ЗащитнеГ смотреть онлайн
    Cкачать фильм ЗащитнеГ бесплатно
    ЗащитнеГ скачать торрент в хорошем качестве
    ЗащитнеГ смотреть онлайн бесплатно в хорошем качестве


    Вы не можете начинать темы
    Вы не можете отвечать на сообщения
    Вы не можете редактировать свои сообщения
    Вы не можете удалять свои сообщения
    Вы не можете голосовать в опросах
    Вы не можете прикреплять файлы к сообщениям
    Вы можете скачивать файлы