2 сезон

iTunes

MVO

1

2 сезон

iTunes

iTunes

1 сезон

RePack

30

Новинка

ВАЖНО

ИГРА 18+

pack

RePack

MK11
pack

Легкие деньги

RePack

jed

RePack

fifa19

RePack

RDR2

RePack

NEED FOR SPEED™ PAYBACK

4 сезон

9 сезон

Бесстыжие 9 сезон

Все сериалы

все сериалы на PB.wtf

RePack

FAR CRY 5

Anonymous, доброй ночи, мы не успеваем собрать деньги на оплату серверов за декабрь и январь, помогите нам пожалуйста в это трудное время. В качестве благодарности мы отключим Вам всю рекламу на сайте (укажите свой ник в строку Ваше имя)!

×
  
Magnet ссылка

Ожидание / The Wait (М. Блаш / M. Blash) [2013, США, триллер, драма, WEB-DLRip,Профессиональный (многоголосый, закадровый) pb.wtf

Ожидание через торрент pb.wtf

Размер: 1.46 GB | Добавлен: 6 лет 9 мес. назад | Торрент скачан:160 раз
Скачать  

05-04-2014 12:17 Ожидание Скачать торрент  

Ожидание / The Wait

«Кто решает, что есть реальность?»
  • Год выпуска: 2013
  • Страна:США
  • Жанр:триллер, драма
  • Продолжительность:01:37:16
  • Перевод:Профессиональный (многоголосый, закадровый)
  • Субтитры: Нет
  • Режиссер: М. Блаш / M. Blash

  • В ролях:

    Джена Мэлоун (Angela), Клоэ Севиньи (Emma), Люк Граймс (Ben), Девон Джирхарт (Ian), Майкл О’Киф (Ben's Dad), Джош Хэмилтон (Sammy's Dad), Лана Элизабет Грин (Karen), Генри Гаммер (Henry), Трей Хансен (Sammy), Карен Толвстад (Sammy's Mom)

    • Описание:
      Две сестры, мать которых недавно скончалась, находятся в её доме. Загадочный звонок от медиума вводит их в состояние трепетного ожидания её вероятного воскрешения. Одна из них уверена в том, что чудо произойдёт, вторая же считала это бредом. Но, внезапно обретя настоящую любовь, и она поддаётся этой вере. Фантазия и реальность, мир мёртвых и мир живых, соперничество и непонимание затягивают двух сестер в мистический водоворот...

    Мировая премьера:1 сентября 2013

    • Качество: WEB-DLRip
    • Формат: AVI
    • Видео кодек: XviD
    • Аудио кодек:AC3
    • Видео: XviD, 720x400 (16:9), 1944 kbps, 23,976 fps, 0,282 bpp
    • Аудио: AC3 / 2.0 / 48 kHz / 192 kbps / 16 bit


    Код:

    General
    Complete name                            : D:\Торенты\Ozhidanie.2013.P.WEBDLRip.avi
    Format                                   : AVI
    Format/Info                              : Audio Video Interleave
    File size                                : 1.46 GiB
    Duration                                 : 1h 37mn
    Overall bit rate                         : 2 146 Kbps
    Writing application                      : VirtualDubMod 1.5.10.2 (build 2540/release)
    Writing library                          : VirtualDubMod build 2540/release

    Video
    ID                                       : 0
    Format                                   : MPEG-4 Visual
    Format profile                           : Advanced Simple@L5
    Format settings, BVOP                    : 2
    Format settings, QPel                    : No
    Format settings, GMC                     : No warppoints
    Format settings, Matrix                  : Default (MPEG)
    Codec ID                                 : XVID
    Codec ID/Hint                            : XviD
    Duration                                 : 1h 37mn
    Bit rate                                 : 1 945 Kbps
    Width                                    : 720 pixels
    Height                                   : 400 pixels
    Display aspect ratio                     : 16:9
    Frame rate                               : 23.976 fps
    Color space                              : YUV
    Chroma subsampling                       : 4:2:0
    Bit depth                                : 8 bits
    Scan type                                : Progressive
    Compression mode                         : Lossy
    Bits/(Pixel*Frame)                       : 0.282
    Stream size                              : 1.32 GiB (91%)
    Writing library                          : XviD 1.2.1 (UTC 2008-12-04)

    Audio
    ID                                       : 1
    Format                                   : AC-3
    Format/Info                              : Audio Coding 3
    Mode extension                           : CM (complete main)
    Codec ID                                 : 2000
    Duration                                 : 1h 37mn
    Bit rate mode                            : Constant
    Bit rate                                 : 192 Kbps
    Channel(s)                               : 2 channels
    Channel positions                        : Front: L R
    Sampling rate                            : 48.0 KHz
    Bit depth                                : 16 bits
    Compression mode                         : Lossy
    Stream size                              : 134 MiB (9%)
    Alignment                                : Split accross interleaves
    Interleave, duration                     : 42 ms (1.00 video frame)
    Interleave, preload duration             : 500 ms

    Скриншоты:

    Каталог Новинок (Фильмы-трейлеры, Игры, Сериалы, Мультфильмы)

    © Оформление by Raven
    pb.wtf



  • Скачать Ожидание через торрент http://i2.imageban.ru/out/2014/04/05/1a8748ca684c8b681fa6b14e51726111.jpg Скачать фильм Ожидание через торрент бесплантно в хорошем качестве Описание:Две сестры, мать которых недавно скончалась, находятся в её доме. Загадочный звонок от медиума вводит их в состояние трепетного ... 9.1 10 8
    Торрент: Зарегистрирован [2014-04-05 12:17] · скачан: 160 раз
    Статус: √ проверено
    Размер: 1.46 GB
    Как cкачать? Как скачать Ожидание через торрент | UTorrent

    % Раздел Тема Автор DL S | L
    Фильмы 2019-2020 [DVDrip, WEB-DLRip, HDrip] (DUB, MVO) [ 2.13 GB ] В ожидании варваров / Waiting for the Barbarians [2019 BDRip] - Twi7ter Скачать
    9 | 0
    Фильмы 2019-2020 [DVDrip, WEB-DLRip, HDrip] (DUB, MVO) [ 1.41 GB ] В ожидании варваров / Waiting for the Barbarians [2019 BDRip] - Twi7ter Скачать
    6 | 1
    Фильмы [HD 720p, 1080p] (Хороший звук DUB, MVO) [ 14.14 GB ] В ожидании варваров / Waiting for the Barbarians [2019 BDRip 1080p] bober100 Скачать
    1 | 0
    Фильмы 2019-2020 [DVDrip, WEB-DLRip, HDrip] (DUB, MVO) [ 1.46 GB ] В ожидании варваров / Waiting for the Barbarians [2019 BDRip] bober100 Скачать
    3 | 0
    Фильмы 2019-2020 [DVDrip, WEB-DLRip, HDrip] (DUB, MVO) [ 2.41 GB ] В ожидании варваров / Waiting for the Barbarians [2019 BDRip-AVC] от wolf1245 & MediaBit Lithuania Скачать
    1 | 0
    Фильмы [HD 720p, 1080p] (Хороший звук DUB, MVO) [ 4.07 GB ] В ожидании варваров / Waiting for the Barbarians [2019 BDRip 720p] bober100 Скачать
    1 | 0
    Фильмы (Blu-ray, BD-Remux, HDDVD) [ 29.37 GB ] В ожидании варваров / Waiting for the Barbarians [2019 BD Remux 1080p] bober100 Скачать
    1 | 0

    28-11-2019 20:33  

    Отключить всю рекламу на сайте

    06-04-2014 17:29 Ожидание Скачать торрент  

    и ... кто нить - как фильм?pb.wtf



      Дорогой пользователь! Огромная просьба, поблагодарите релизера, оцените раздачу и оставьте свои комментарий, если Вы скачали Ожидание через торрент бесплатно! Внесите свою лепту в развитие PiratBit!
      Комментировать посты могут только пользователи прошедшие не сложную регистрацию
      Показать сообщения:    

      Ожидание через торрент
      Скачать бесплатно Ожидание
      Ожидание скачать торрент
      Ожидание смотреть онлайн
      Cкачать фильм Ожидание бесплатно
      Ожидание скачать торрент в хорошем качестве
      Ожидание смотреть онлайн бесплатно в хорошем качестве


      Вы не можете начинать темы
      Вы не можете отвечать на сообщения
      Вы не можете редактировать свои сообщения
      Вы не можете удалять свои сообщения
      Вы не можете голосовать в опросах
      Вы не можете прикреплять файлы к сообщениям
      Вы можете скачивать файлы