1 сезон

1 сезон

iTunes

1

КиноПоиск HD

Кинопоиск HD

iTunes

13

1 сезон

RePack

30

Новинка

ВАЖНО

ИГРА 18+

pack

RePack

MK11
pack

Легкие деньги

RePack

jed

RePack

fifa19

RePack

RDR2

RePack

NEED FOR SPEED™ PAYBACK

4 сезон

9 сезон

Бесстыжие 9 сезон

Все сериалы

все сериалы на PB.wtf

RePack

FAR CRY 5
  
Magnet ссылка

Мойка / The Wash (Ди-Джей Пух / D.J. Pooh) [2001 г., Комедия, DVDRip-AVC, DVO] pb.wtf

Мойка через торрент pb.wtf

Размер: 1.36 GB | Добавлен: 7 лет назад | Торрент скачан:115 раз
Скачать  

05-04-2014 12:45 Мойка Скачать торрент  

Мойка / The Wash Год выпуска: 2001
Страна: США
Жанр: Комедия
Продолжительность: 01:32:50
Перевод: Профессиональный(двухголосый закадровый)

Режиссер: Ди-Джей Пух / D.J. Pooh

В ролях: Энтони Альбано,Др. Дре,Тик,Ламонт Бентли,Бишоп Дон Мэджик Хуан,Брюс Брюс,Таи Букман,Фрэнк Чавез,Томми Чонг,Энджелл Конвелл

Описание: Главные герои — разнохарактерные соседи по комнате, которые проводят все дни напролет на своей работе — автомойке. Единственным отдыхом для них является пара выкуренных косяков с травкой и следующие за этим «интересные» разговоры


Качество: DVDRip-AVC
Формат: AVC
Видео кодек: MPEG4
Аудио кодек: AC3
Видео: AVC, 1024x576, 1723 кб/с, 25. fps
Аудио#1: AC3, 6 ch, 384 кб/с, 48.0 KHz







General
Unique ID : 228085448433490449921249697014872387012 (0xAB97A8D51A8EA30AA54C92D9F055ADC4)
Complete name : D:\Загрузка\The.Wash.DVDRip-AVC.Kinomagia..mkv
Format : Matroska
Format version : Version 2
File size : 1.36 GiB
Duration : 1h 32mn
Overall bit rate : 2 097 Kbps
Encoded date : UTC 2013-02-05 00:07:32
Writing application : mkvmerge v4.6.0 ('Still Crazy After All These Years') сборка от Apr 1 2011 21:01:49
Writing library : libebml v1.2.0 + libmatroska v1.1.0

Video
ID : 1
Format : AVC
Format/Info : Advanced Video Codec
Format profile : High@L4.0
Format settings, CABAC : Yes
Format settings, ReFrames : 11 frames
Codec ID : V_MPEG4/ISO/AVC
Duration : 1h 32mn
Bit rate : 1 723 Kbps
Width : 1 024 pixels
Height : 576 pixels
Display aspect ratio : 16:9
Frame rate mode : Constant
Frame rate : 25.000 fps
Color space : YUV
Chroma subsampling : 4:2:0
Bit depth : 8 bits
Scan type : Progressive
Bits/(Pixel*Frame) : 0.117
Stream size : 1.08 GiB (80%)
Writing library : x264 core 115 r1937 aa21558
Encoding settings : cabac=1 / ref=11 / deblock=1:-2:-1 / analyse=0x3:0x133 / me=umh / subme=10 / psy=1 / psy_rd=1.00:0.20 / mixed_ref=1 / me_range=24 / chroma_me=1 / trellis=2 / 8x8dct=1 / cqm=0 / deadzone=21,11 / fast_pskip=1 / chroma_qp_offset=-3 / threads=3 / sliced_threads=0 / nr=0 / decimate=1 / interlaced=0 / bluray_compat=0 / constrained_intra=0 / bframes=4 / b_pyramid=2 / b_adapt=2 / b_bias=0 / direct=1 / weightb=1 / open_gop=0 / weightp=2 / keyint=250 / keyint_min=25 / scenecut=40 / intra_refresh=0 / rc_lookahead=60 / rc=abr / mbtree=1 / bitrate=1723 / ratetol=1.0 / qcomp=0.60 / qpmin=0 / qpmax=69 / qpstep=4 / ip_ratio=1.40 / aq=1:1.00
Default : Yes
Forced : No

Audio
ID : 2
Format : AC-3
Format/Info : Audio Coding 3
Mode extension : CM (complete main)
Format settings, Endianness : Big
Codec ID : A_AC3
Duration : 1h 32mn
Bit rate mode : Constant
Bit rate : 384 Kbps
Channel(s) : 6 channels
Channel positions : Front: L C R, Side: L R, LFE
Sampling rate : 48.0 KHz
Bit depth : 16 bits
Compression mode : Lossy
Stream size : 255 MiB (18%)
Default : Yes
Forced : No
pb.wtf



Скачать Мойка через торрент https://pic.kartinco.top/images/6/o3dyz.jpg Скачать фильм Мойка через торрент бесплантно в хорошем качестве Описание: Главные герои — разнохарактерные соседи по комнате, которые проводят все дни напролет на своей работе — автомойке. Единственным ... 9 10 9
Торрент: Зарегистрирован [2014-04-05 12:45] · скачан: 115 раз
Статус: √ проверено
Размер: 1.36 GB
Как cкачать? Как скачать Мойка через торрент | UTorrent

% Раздел Тема Автор DL S | L
Фильмы 2001-2005 [ 1.46 GB ] Мойка / The Wash [2001 WEB-DLRip] [DVO] killermax2013 Скачать
1 | 0


Последний раз редактировалось: Alex_E (2014-04-05 12:56), всего редактировалось 1 раз

28-11-2019 20:33  

Отключить всю рекламу на сайте

05-04-2014 12:51 Мойка Скачать торрент  

    Дорогой пользователь! Огромная просьба, поблагодарите релизера, оцените раздачу и оставьте свои комментарий, если Вы скачали Мойка через торрент бесплатно! Внесите свою лепту в развитие PiratBit!
    Комментировать посты могут только пользователи прошедшие не сложную регистрацию
    Показать сообщения:    

    Мойка через торрент
    Скачать бесплатно Мойка
    Мойка скачать торрент
    Мойка смотреть онлайн
    Cкачать фильм Мойка бесплатно
    Мойка скачать торрент в хорошем качестве
    Мойка смотреть онлайн бесплатно в хорошем качестве


    Вы не можете начинать темы
    Вы не можете отвечать на сообщения
    Вы не можете редактировать свои сообщения
    Вы не можете удалять свои сообщения
    Вы не можете голосовать в опросах
    Вы не можете прикреплять файлы к сообщениям
    Вы можете скачивать файлы