Мега распродажа FORZA HORIZON 4 ULTIMATE+ВСЕ DLC+ОНЛАЙН всего за 499р. 349 руб. (супер цена). Внимание количество ограничено!!!

Лицензия

30

iTunes

мы

iTunes

1

1 сезон

Чернобыль

1 сезон

Ральф против интернета

MVO

Покемон. Детектив Пикачу

8 сезон

Игра престолов

iTunes

1+1

ИГРА 18+

pack

ВАЖНО

!!Акция!!

Alien_RageХит недели

RePack

Resident Evil 21
pack

RePack

Metro:Exodus

!!Акция!!

Alien_Rage

RePack

fifa19

RePack

Assassins Creed: Odyssey

RePack

NEED FOR SPEED™ PAYBACK

3 сезон

9 сезон

Бесстыжие 9 сезон

Все сериалы

все сериалы на PB.wtf

RePack

FAR CRY 5
Ребята, катастрофически не хватает 2730р. для оплаты серверов за МАЙ (всвязи с блокировками трафик упал в 3 раза), 1-2р., выручайте.
  

Мальчик в коробке / Stolen (Андерс Андерсон / Anders Anderson) [2009, США, триллер, драма, криминал, HDRip-AVC, Профессиональный (двухголосый закадровый) pb.wtf

Мальчик в коробке через торрент pb.wtf

Размер: 1.37 GB | Добавлен: 5 лет 2 мес. назад | Торрент скачан:145 раз
Скачать  

05-04-2014 15:39 Мальчик в коробке Скачать торрент  

Мальчик в коробке / Stolen
Год выпуска: 2009
Страна: США
Жанр: триллер, драма, криминал, детектив
Продолжительность: 01:31:03
Перевод: Профессиональный (двухголосый закадровый) SDI Media (TV1000)
Субтитры: Английские (отключаемые)

Режиссер: Андерс Андерсон / Anders Anderson
В ролях: Джон Хэмм (Tom Adkins Sr.), Джош Лукас (Matthew Wakefield), Рона Митра (Barbara), Джеймс Ван Дер Бик (Diploma / Rogianni), Джессика Честейн (Sally Ann), Джоанна Кэссиди (Lea Adkins), Джимми Беннетт (John Wakefield), Морена Баккарин (Rose Montgomery), Майкл Кудлиц (Jonas), Энди Милдер (William Daniels), Холт МакКэллани (Swede), Джуд Чикколелла (Police Chief)

Описание:
В центре сюжета - расследование совершенного полвека назад и так и не раскрытого убийства мальчика, чьи мумифицированные останки были обнаружены в наши дни. Докопаться до истины пытается шериф маленького городка Том Эдкинс...

kinopoisk.ru: 6.863 (540)
imdb.com: 6.20 (3603)
MPAA: R - Лицам до 17 лет обязательно присутствие взрослого

Качество: HDRip-AVC
Формат: MKV
Видео кодек: AVC
Аудио кодек: AC3
Видео: AVC, 1024x416 (2.462), 1964 kbps, 24 fps, 0,192 bpp
Аудио: AC3 / 2.0 / 48 kHz / 192 kbps / 16 bit


General
Unique ID : 182957064537479350934533402536730155371 (0x89A43FB8C307FC87B71B8377F0AFD96B)
Complete name : E:\закачки\Stolen Lives.2009.HDRip-AVC.mkv
Format : Matroska
Format version : Version 4 / Version 2
File size : 1.37 GiB
Duration : 1h 31mn
Overall bit rate : 2 155 Kbps
Movie name : Мальчик в коробке / Stolen / Stolen Lives (2009) HDRip-AVC rip by Rulya74
Encoded date : UTC 2014-03-13 20:40:30
Writing application : mkvmerge v6.5.0 ('Isn't she lovely') built on Oct 20 2013 12:50:05
Writing library : libebml v1.3.0 + libmatroska v1.4.1

Video
ID : 1
Format : AVC
Format/Info : Advanced Video Codec
Format profile : High@L4.1
Format settings, CABAC : Yes
Format settings, ReFrames : 10 frames
Codec ID : V_MPEG4/ISO/AVC
Duration : 1h 31mn
Bit rate : 1 964 Kbps
Width : 1 024 pixels
Height : 416 pixels
Display aspect ratio : 2.462
Frame rate : 24.000 fps
Color space : YUV
Chroma subsampling : 4:2:0
Bit depth : 8 bits
Scan type : Progressive
Bits/(Pixel*Frame) : 0.192
Stream size : 1.22 GiB (89%)
Writing library : x264 core 130 r2273 b3065e6
Encoding settings : cabac=1 / ref=10 / deblock=1:-1:-1 / analyse=0x3:0x110 / me=umh / subme=11 / psy=1 / psy_rd=1.10:0.40 / mixed_ref=1 / me_range=48 / chroma_me=1 / trellis=2 / 8x8dct=1 / cqm=0 / deadzone=21,11 / fast_pskip=0 / chroma_qp_offset=-4 / threads=4 / lookahead_threads=1 / sliced_threads=0 / nr=0 / decimate=1 / interlaced=0 / bluray_compat=0 / constrained_intra=0 / bframes=8 / b_pyramid=2 / b_adapt=2 / b_bias=0 / direct=3 / weightb=1 / open_gop=0 / weightp=2 / keyint=250 / keyint_min=24 / scenecut=40 / intra_refresh=0 / rc_lookahead=50 / rc=2pass / mbtree=1 / bitrate=1964 / ratetol=1.0 / qcomp=0.60 / qpmin=0 / qpmax=69 / qpstep=4 / cplxblur=20.0 / qblur=0.5 / ip_ratio=1.40 / aq=1:1.00
Default : Yes
Forced : No

Audio
ID : 2
Format : AC-3
Format/Info : Audio Coding 3
Mode extension : CM (complete main)
Codec ID : A_AC3
Duration : 1h 31mn
Bit rate mode : Constant
Bit rate : 192 Kbps
Channel(s) : 2 channels
Channel positions : Front: L R
Sampling rate : 48.0 KHz
Bit depth : 16 bits
Compression mode : Lossy
Stream size : 125 MiB (9%)
Title : Профессиональный (двухголосый закадровый) SDI Media (TV1000)
Language : Russian
Default : Yes
Forced : No

Text
ID : 3
Format : UTF-8
Codec ID : S_TEXT/UTF8
Codec ID/Info : UTF-8 Plain Text
Language : English
Default : Yes
Forced : No
pb.wtf



Скачать Мальчик в коробке через торрент http://6.firepic.org/6/images/2014-03/13/2zxsoekac3fn.png Скачать фильм Мальчик в коробке через торрент бесплантно в хорошем качестве Описание: В центре сюжета - расследование совершенного полвека назад и так и не раскрытого убийства мальчика, чьи мумифицированные останки ... 10 10 5
Торрент: Зарегистрирован [2014-04-05 15:39] · скачан: 145 раз
Статус: √ проверено
Размер: 1.37 GB
Как cкачать? Как скачать Мальчик в коробке через торрент | qTorrent

% Раздел Тема Автор DL S | L
Фильмы 2009 [ 1.37 GB ] Мальчик в коробке / Stolen Lives [2009 DVDRip] MIO2008 Скачать
1 | 0


>> Регистрируемся здесь <<






Отзывы и комментарии о схеме читаем и пишем здесь: ---> Отзывы и комментарии о схеме

Новые благодарочки в телеграм довольных пользователей:
скриншот   скриншот   скриншот   скриншот   скриншот
    Дорогой пользователь! Огромная просьба, поблагодарите релизера, оцените раздачу и оставьте свои комментарий, если Вы скачали Мальчик в коробке через торрент бесплатно! Внесите свою лепту в развитие PiratBit!
    Комментировать посты могут только пользователи прошедшие не сложную регистрацию
    Показать сообщения:    

    Мальчик в коробке через торрент
    Скачать бесплатно Мальчик в коробке
    Мальчик в коробке скачать торрент
    Мальчик в коробке смотреть онлайн
    Cкачать фильм Мальчик в коробке бесплатно
    Мальчик в коробке скачать торрент в хорошем качестве
    Мальчик в коробке смотреть онлайн бесплатно в хорошем качестве


    Вы не можете начинать темы
    Вы не можете отвечать на сообщения
    Вы не можете редактировать свои сообщения
    Вы не можете удалять свои сообщения
    Вы не можете голосовать в опросах
    Вы не можете прикреплять файлы к сообщениям
    Вы можете скачивать файлы