Ссылка на приватное зеркало нашего сайта всего за 1$. Внимание количество ограничено!!!

2 сезон

iTunes

1 сезон

1

iTunes

iTunes

iTunes

1 сезон

RePack

30

ИГРА 18+

pack

ВАЖНО

!!Акция!!

Alien_RageХит недели

RePack

MK11
pack

Забери бонус

RePack

jed

!!Акция!!

Alien_Rage

RePack

fifa19

RePack

Assassins Creed: Odyssey

RePack

NEED FOR SPEED™ PAYBACK

4 сезон

9 сезон

Бесстыжие 9 сезон

Все сериалы

все сериалы на PB.wtf

RePack

FAR CRY 5
  

Холодное сердце / Frozen (Крис Бак, Дженнифер Ли) [2013, мультфильм, мюзикл, фэнтези, комедия, мелодрама, приключения, семейный, HDRip-AVC] DUB [Лицензия] от R.G. PiratFilms pb.wtf

Холодное сердце через торрент pb.wtf

Раздают: 4 [ 0 KB/s ]
Размер: 1.46 GB | Добавлен: 6 лет 6 мес. назад | Торрент скачан:5595 раз
Скачать  

05-04-2014 16:19 Холодное сердце Скачать торрент  

Холодное сердце / Frozen
«From the creators of 'Tangled' and 'Wreck-It Ralph'...»



Год выпуска: 2013
Страна: США
Жанр: мультфильм, мюзикл, фэнтези, комедия, мелодрама, приключения, семейный
Длительность: 01:42:13
Перевод: Профессиональный (Дубляж) [Лицензия Blu-Ray CEE]

Режиссер: Крис Бак, Дженнифер Ли

В ролях: Кристен Белл, Идина Мензел, Джонатан Грофф, Джош Гад, Сантино Фонтана, Алан Тьюдик, Киаран Хайндс, Крис Уильямс, Стивен Дж. Андерсон, Майа Уилсон

Описание: Когда древнее предсказание сбывается и королевство погружается в объятия вечной зимы, трое бесстрашных героев — принцесса Анна, отважный Кристофф и его верный олень Свен — отправляются в горы, чтобы найти сестру Анны, Эльзу, которая может снять со страны леденящее заклятие. По пути их ждет множество увлекательных сюрпризов и захватывающих приключений: встреча с мистическими троллями, знакомство с очаровательным снеговиком по имени Олаф, горные вершины покруче Эвереста и магия в каждой снежинке. Анне и Кристоффу предстоит сплотиться и противостоять могучей стихии, чтобы спасти королевство и тех, кто им дорог…

|

Качество: HDRip-AVC (Rip by Demonessa)
Исходник: BDRip 1080p by Messa-fan
Формат: MKV
Видео кодек: H.264
Аудио кодек: AC3
Видео: H.264, 1024*456, 23,976 кадр/сек, 1593 Кбит/сек, 0.142 Бит/(Пиксели*Кадры)
Аудио: AC3, 448 Кбит/сек, 6 каналов, 48,0 КГц

Код:

x264 [info]: frame I:1296  Avg QP:14.72  size: 66195  PSNR Mean Y:48.84 U:51.35 V:52.04 Avg:49.40 Global:48.86
x264 [info]: frame P:40111 Avg QP:18.38  size: 14122  PSNR Mean Y:46.36 U:50.41 V:51.36 Avg:47.08 Global:46.42
x264 [info]: frame B:105639 Avg QP:20.80  size:  5382  PSNR Mean Y:46.26 U:50.23 V:51.11 Avg:47.00 Global:46.11
x264 [info]: consecutive B-frames:  4.3%  4.8% 16.9% 36.9% 15.6% 18.8%  1.7%  0.5%  0.6%

Код:

Общее
Уникальный идентификатор         : 211889040319247765164939643239578326823 (0x9F68584271448B8987118D9D35D9D727)
Полное имя                       : G:\Video\Rip by Demonessa\Frozen Rip by Demonessa.mkv
Формат                           : Matroska
Размер файла                     : 1,46 Гбайт
Продолжительность                : 1 ч. 42 м.
Общий поток                      : 2042 Кбит/сек
Дата кодирования                 : UTC 2014-04-05 08:42:43
Программа кодирования            : mkvmerge v6.5.0 ('Isn't she lovely') built on Oct 20 2013 12:50:05
Библиотека кодирования           : libebml v1.3.0 + libmatroska v1.4.1

Видео
Идентификатор                    : 1
Формат                           : AVC
Формат/Информация                : Advanced Video Codec
Профиль формата                  : High@L4.1
Параметр CABAC формата           : Да
Параметр ReFrames формата        : 12 кадры
Идентификатор кодека             : V_MPEG4/ISO/AVC
Продолжительность                : 1 ч. 42 м.
Битрейт                          : 1593 Кбит/сек
Ширина                           : 1024 пикс.
Высота                           : 456 пикс.
Соотношение сторон               : 2,25:1
Частота кадров                   : 23,976 кадр/сек
Цветовое пространство            : YUV
Подвыборка цветности             : 4:2:0
Битовая глубина                  : 8 бит
Тип развёртки                    : Прогрессивная
Бит/(Пиксели*Кадры)              : 0.142
Размер потока                    : 1,11 Гбайт (76%)
Заголовок                        : Rip by Demonessa
Библиотека кодирования           : x264 core 138 r2358 9e941d1
Настройки программы              : cabac=1 / ref=12 / deblock=1:-2:-1 / analyse=0x3:0x113 / me=umh / subme=9 / psy=1 / psy_rd=1.00:0.00 / mixed_ref=1 / me_range=32 / chroma_me=1 / trellis=2 / 8x8dct=1 / cqm=0 / deadzone=21,11 / fast_pskip=1 / chroma_qp_offset=-2 / threads=4 / lookahead_threads=1 / sliced_threads=0 / nr=0 / decimate=1 / interlaced=0 / bluray_compat=0 / constrained_intra=0 / bframes=8 / b_pyramid=2 / b_adapt=2 / b_bias=0 / direct=1 / weightb=1 / open_gop=0 / weightp=2 / keyint=240 / keyint_min=23 / scenecut=40 / intra_refresh=0 / rc_lookahead=40 / rc=2pass / mbtree=1 / bitrate=1593 / ratetol=1.0 / qcomp=0.75 / qpmin=10 / qpmax=51 / qpstep=4 / cplxblur=20.0 / qblur=0.5 / ip_ratio=1.40 / aq=1:1.00
Язык                             : English

Аудио
Идентификатор                    : 2
Формат                           : AC-3
Формат/Информация                : Audio Coding 3
Расширение режима                : CM (complete main)
Идентификатор кодека             : A_AC3
Продолжительность                : 1 ч. 42 м.
Вид битрейта                     : Постоянный
Битрейт                          : 448 Кбит/сек
Канал(ы)                         : 6 канала(ов)
Расположение каналов             : Front: L C R, Side: L R, LFE
Частота                          : 48,0 КГц
Битовая глубина                  : 16 бит
Метод сжатия                     : С потерями
Размер потока                    : 328 Мбайт (22%)
Язык                             : Russian

pb.wtf



Скачать Холодное сердце через торрент http://pic.kartinco.top/images/6/me51c.jpg Скачать фильм Холодное сердце через торрент бесплантно в хорошем качестве Описание: Когда древнее предсказание сбывается и королевство погружается в объятия вечной зимы, трое бесстрашных героев — принцесса Анна, ... 9.8 10 83
Info! Золотая раздача, скачанное не засчитывается.
Торрент: Зарегистрирован [2014-04-05 16:19] · скачан: 5 595 раз
Статус: √ проверено
Размер: 1.46 GB
Как cкачать? Как скачать Холодное сердце через торрент | qTorrent

% Раздел Тема Автор DL S | L
Зарубежные Мультфильмы (BDRip 1080p, 720p, Blu-ray, BD-Remux) [ 3.9 GB ] Холодное сердце / Frozen [2013 мультфильм мюзикл BDRip 720p ] [] + Original + Sub от R.G. PiratFilms Messa-fan Скачать
1 | 0
Зарубежные Мультфильмы (BDRip 1080p, 720p, Blu-ray, BD-Remux) [ 6.7 GB ] Холодное сердце / Frozen [2013 мультфильм мюзикл BDRip 1080p ] [] + Original + Sub] от R.G. PiratFilms Messa-fan Скачать
1 | 0

28-11-2019 20:33  

Отключить всю рекламу на сайте

07-04-2014 16:30 Холодное сердце Скачать торрент  

Спасибо, долго ждал. Перевод супер, качество супер(правда я конвертировал в HD AVI). Дома на большом телевизоре вся семья , а особенно дети с удовольствием смотрели.pb.wtf



    Дорогой пользователь! Огромная просьба, поблагодарите релизера, оцените раздачу и оставьте свои комментарий, если Вы скачали Холодное сердце через торрент бесплатно! Внесите свою лепту в развитие PiratBit!
    Комментировать посты могут только пользователи прошедшие не сложную регистрацию
    Показать сообщения:    

    Холодное сердце через торрент
    Скачать бесплатно Холодное сердце
    Холодное сердце скачать торрент
    Холодное сердце смотреть онлайн
    Cкачать фильм Холодное сердце бесплатно
    Холодное сердце скачать торрент в хорошем качестве
    Холодное сердце смотреть онлайн бесплатно в хорошем качестве


    Вы не можете начинать темы
    Вы не можете отвечать на сообщения
    Вы не можете редактировать свои сообщения
    Вы не можете удалять свои сообщения
    Вы не можете голосовать в опросах
    Вы не можете прикреплять файлы к сообщениям
    Вы можете скачивать файлы