Доктор Стрэндж

Лицензия

Добыча

MVO

Дом дракона

1 сезон

Тор

Лицензия

Мэверик

Лицензия

Там, где раки поют

MVO

Властелин колец

1 сезон

Ultimate

pack

Рекомендуем

30

Repack

ВАЖНО

ВАЖНО

Ghostwire

RePack

jed

RePack

nioh2

RePack

RDR2

RePack

NEED FOR SPEED™ PAYBACK

RePack

скачать торрент

Кинопоиск HD

Острые козырьки 6 сезон

6 сезон

FAR CRY 6

RePack

скачать торрент

Лицензия

скачать торрент

MVO

1

1 сезон

скачать торрент

1 сезон

скачать торрент

Лицензия

  

Адреналин / Crank (Марк Невелдин) [2006 г., Боевик, триллер, драма, криминал, Blu-ray, Дубляж + Оригинал]

Адреналин через торрент pb.wtf

Качают: 1 [ 0 KB/s ]
Размер: 46.44 GB | Добавлен: 8 лет 5 мес. назад | Торрент скачан:4 раза
Смотреть онлайн Адреналин | Скачать   

05-04-2014 17:09 Адреналин Скачать торрент  

Адреналин / Crank
Год выпуска: 2006
Страна: США
Жанр: Боевик, триллер, драма, криминал
Продолжительность: 01:27:42
Перевод: Дубляж + Оригинал+Оригинал коментарии
Субтитры: английские Испанские

Режиссер: Марк Невелдин

В ролях:Джейсон Стэтхэм,Эми Смарт,Хосе Пабло Кантилльо,Эфрен Рамирез, Дуайт Йокем,Карлос Санс, Рено Уилсон,Еди Касеги,Гленн Хоуертон,Джей Ксала

Описание: Наемный убийца Чев узнает, что недоброжелатели отравили его редким китайским ядом и отрава начнет действовать немедленно, как только пульс перестанет биться ниже определенной отметки. И теперь Чеву нужно успеть сделать все свои дела, попробовать раздобыть противоядие и отомстить своим отравителям в прямом смысле слова впопыхах — стараясь создавать вокруг себя как можно более напряженную обстановку и не расслабляться ни на секунду...

Качество: Blu-ray
Формат: BDMV
Видео кодек: H.264
Аудио кодек: AC3-LPCM
Видео: MPEG-4 AVC, (1920x1080),23 700 Кбит/с, 23976 кадра/сек
Аудио#1: AC-3, 6 ch, 640 kbps (Rus) 48.0 KHz дубляж
Аудио#2: LPCM, 8 ch, 6144 kbps,(Eng) 48 kHz Оригинал
Аудио#3: AC-3, 2 ch, 192 kbps (Eng) 48.0 KHz Оригинал коментарии
скриншот   скриншот   скриншот  

Тип потока: Видео
Длительность: 01:27:42
Кодек: MPEG Video
Кодек/профиль: [email protected]
Кодек/ID: 2
Кодек/версия: Version 2
Размеры изображения: 1920 x 1080 (16:9)
Частота кадров: 23.976 fps
Размер потока: 14.7 GiB (74%)
Битрейт: 24.1 Mbps
Битрейт/макс: 37.0 Mbps
Битрейт/тип: VBR
Метод сжатия: Lossy
Цветовое пространство: YUV
Тип развёртки: Progressive
Глубина: 8 bits
:
Тип потока: Звук #1
Длительность: 01:27:42.255
Кодек: PCM
Режим смешивания: Blu-ray
Кодек/ID: 128
Частота дискретизации: 48.0 KHz
Каналов: 8 channels
Битрейт: 6 144 Kbps
Битрейт/тип: Constant
Размер потока: 3.76 GiB (19%)
Глубина: 16 bits
:
Тип потока: Звук #2
Длительность: 01:27:42.304
Кодек: AC-3
Кодек/описание: Audio Coding 3
Кодек/ID: 129
Частота дискретизации: 48.0 KHz
Каналов: 6 channels
Битрейт: 640 Kbps
Битрейт/тип: Constant
Размер потока: 401 MiB (2%)
Глубина: 16 bits
Метод сжатия: Lossy
:
Тип потока: Звук #3
Длительность: 01:27:42.272
Кодек: AC-3
Кодек/описание: Audio Coding 3
Кодек/профиль: Dolby Digital
Кодек/ID: 129
Частота дискретизации: 48.0 KHz
Каналов: 2 channels
Битрейт: 192 Kbps
Битрейт/тип: Constant
Размер потока: 120 MiB (1%)
Глубина: 16 bits
Метод сжатия: Lossy
:
Тип потока: Субтитры #1
Формат: PGS
:
Тип потока: Субтитры #2
Формат: PGS




Скачать Адреналин через торрент https://pic1.kartinco.top/images/61/pv5y6.jpg Скачать, смотреть онлайн Адреналин бесплантно в хорошем качестве Описание: Наемный убийца Чев узнает, что недоброжелатели отравили его редким китайским ядом и отрава начнет действовать немедленно, как ... 10 10 6
Info! Золотая раздача, скачанное не засчитывается.
Торрент: Зарегистрирован [2014-04-05 17:09] · скачан: 4 раз
Статус: √ проверено
Размер: 46.44 GB
Как cкачать? Как скачать Адреналин через торрент | UTorrent

% Раздел Тема Автор DL S | L
Сборники и Сиквелы (48-60 fps) [ 9.15 GB ] Адреналин: Дилогия / Crank: Dilogy | DUB | 720p,DUB slaventi-69 Скачать
1 | 1
Фильмы [HD 720p, 1080p] (Хороший звук DUB, MVO) [ 7.94 GB ] Адреналин / Crank | Дубляж | 1080p, Дубляж Бумер Скачать
1 | 0
Фильмы 2006-2008 [ 1.46 GB ] Адреналин / Crank | DUB | BDRip Ворон Скачать
1 | 0
Фильмы 2010 [ 2.19 GB ] Адреналин: Высокое напряжение / Crank: High Voltage | DUB + DVO | BDRip Ворон Скачать
1 | 0
Фильмы 2006-2008 [ 2.19 GB ] Адреналин / Crank | MVO | BDRip - AVC Ворон Скачать
1 | 0
Сборники на DVD и Сиквелы [DVDrip, WEB-DLRip, HDrip, BDRip] [ 5.93 GB ] Адреналин. Дилогия / Crank. Duology | DUB + AVO | BDRip-AVC -=Cherry=- Скачать
1 | 0

28-11-2019 20:33  

Отключить вcю реклaмy на сайте

04-02-2017 11:45 Адреналин Скачать торрент  

встаньте пожалуйста на раздачу!



    Дорогой пользователь! Огромная просьба, поблагодарите релизера, оцените раздачу и оставьте свои комментарий, если Вы скачали Адреналин через торрент бесплатно!!
    Комментировать посты могут только пользователи прошедшие не сложную регистрацию
    Показать сообщения:    


    Адреналин через торрент
    Скачать бесплатно Адреналин
    Адреналин скачать торрент
    Адреналин смотреть онлайн
    Cкачать фильм Адреналин бесплатно
    Адреналин скачать торрент в хорошем качестве
    Адреналин смотреть онлайн бесплатно в хорошем качестве
    Вы не можете начинать темы
    Вы не можете отвечать на сообщения
    Вы не можете редактировать свои сообщения
    Вы не можете удалять свои сообщения
    Вы не можете голосовать в опросах
    Вы не можете прикреплять файлы к сообщениям
    Вы можете скачивать файлы