Ссылка на приватное зеркало нашего сайта всего за 1$. Внимание количество ограничено!!!

2 сезон

iTunes

1 сезон

1

iTunes

iTunes

iTunes

1 сезон

RePack

30

ИГРА 18+

pack

ВАЖНО

!!Акция!!

Alien_RageХит недели

RePack

MK11
pack

Забери бонус

RePack

jed

!!Акция!!

Alien_Rage

RePack

fifa19

RePack

Assassins Creed: Odyssey

RePack

NEED FOR SPEED™ PAYBACK

4 сезон

9 сезон

Бесстыжие 9 сезон

Все сериалы

все сериалы на PB.wtf

RePack

FAR CRY 5
  

Детские голоса / Pequeñas voces (Хаиро Эдуардо Каррильо / Jairo Eduardo Carrillo, Оскар Андраде / Oscar Andrade) [2010, Колумбия, мультфильм, документальный, драма, DVDRip,Профессиональный (многоголосый, закадровый)[Лицензия] pb.wtf

Детские голоса через торрент pb.wtf

Размер: 1.37 GB | Добавлен: 6 лет 6 мес. назад | Торрент скачан:27 раз
Скачать  

06-04-2014 05:06 Детские голоса Скачать торрент  

Детские голоса / Pequeñas voces
Год выпуска: 2010
Страна: Колумбия
Жанр: мультфильм, документальный, драма
Продолжительность: 01:07:14
Перевод: Профессиональный (многоголосый, закадровый)[Лицензия]
Субтитры: Нет

Режиссер: Хаиро Эдуардо Каррильо / Jairo Eduardo Carrillo, Оскар Андраде / Oscar Andrade
Описание: Анимационный документальный фильм, созданный на основе рисунков и воспоминаний детей, которые выросли в обстановке насилия и хаоса в Колумбии.

kinopoisk.ru: 7.290 (54)
imdb.com: 7.60 (60)

Качество: DVDRip
Формат: AVI
Видео кодек: XviD
Аудио кодек: AC3
Видео: XviD, 720x400 (16:9), 2258 kbps, 25 fps, 0,314 bpp
Аудио Russian: AC3 / 2.0 / 48 kHz / 320 kbps / 16 bit
Аудио Spanish: AC3 / 2.0 / 48 kHz / 320 kbps / 16 bit

General
Complete name : E:\закачки\Detskie.Golosa.2010.DVDRip.avi
Format : AVI
Format/Info : Audio Video Interleave
File size : 1.37 GiB
Duration : 1h 7mn
Overall bit rate : 2 913 Kbps
Movie name : Detskie.Golosa.2010.DVDRip.IRONCLUB

Writing application : VirtualDubMod 1.5.10.2 (build 2540/release)

Video
ID : 0
Format : MPEG-4 Visual
Format profile : Advanced Simple@L5
Format settings, BVOP : 2
Format settings, QPel : No
Format settings, GMC : No warppoints
Format settings, Matrix : Custom
Codec ID : XVID
Codec ID/Hint : XviD
Duration : 1h 7mn
Bit rate : 2 259 Kbps
Width : 720 pixels
Height : 400 pixels
Display aspect ratio : 16:9
Frame rate : 25.000 fps
Color space : YUV
Chroma subsampling : 4:2:0
Bit depth : 8 bits
Scan type : Progressive
Compression mode : Lossy
Bits/(Pixel*Frame) : 0.314
Stream size : 1.06 GiB (78%)
Writing library : XviD 1.2.1 (UTC 2008-12-04)

Audio #1
ID : 1
Format : AC-3
Format/Info : Audio Coding 3
Mode extension : CM (complete main)
Codec ID : 2000
Duration : 1h 7mn
Bit rate mode : Constant
Bit rate : 320 Kbps
Channel(s) : 2 channels
Channel positions : Front: L R
Sampling rate : 48.0 KHz
Bit depth : 16 bits
Compression mode : Lossy
Stream size : 154 MiB (11%)
Alignment : Split accross interleaves
Interleave, duration : 40 ms (1.00 video frame)
Interleave, preload duration : 500 ms

Audio #2
ID : 2
Format : AC-3
Format/Info : Audio Coding 3
Mode extension : CM (complete main)
Codec ID : 2000
Duration : 1h 7mn
Bit rate mode : Constant
Bit rate : 320 Kbps
Channel(s) : 2 channels
Channel positions : Front: L R
Sampling rate : 48.0 KHz
Bit depth : 16 bits
Compression mode : Lossy
Stream size : 154 MiB (11%)
Alignment : Split accross interleaves
Interleave, duration : 40 ms (1.00 video frame)
Interleave, preload duration : 500 ms
pb.wtf



Скачать Детские голоса через торрент http://st.kp.yandex.net/images/film_big/601412.jpg Скачать фильм Детские голоса через торрент бесплантно в хорошем качестве Описание: Анимационный документальный фильм, созданный на основе рисунков и воспоминаний детей, которые выросли в обстановке насилия и ... 10 10 2
Info! Золотая раздача, скачанное не засчитывается.
Торрент: Зарегистрирован [2014-04-06 05:06] · скачан: 27 раз
Статус: √ проверено
Размер: 1.37 GB
Как cкачать? Как скачать Детские голоса через торрент | qTorrent

28-11-2019 20:33  

Отключить всю рекламу на сайте

06-04-2014 08:43 Детские голоса Скачать торрент  

http://puu.sh/7XXiX.png ссылки запрещены, проверяйте МИ.Многие вшивают в видеоряд их.Пока устное.pb.wtf



    Дорогой пользователь! Огромная просьба, поблагодарите релизера, оцените раздачу и оставьте свои комментарий, если Вы скачали Детские голоса через торрент бесплатно! Внесите свою лепту в развитие PiratBit!
    Комментировать посты могут только пользователи прошедшие не сложную регистрацию
    Показать сообщения:    

    Детские голоса через торрент
    Скачать бесплатно Детские голоса
    Детские голоса скачать торрент
    Детские голоса смотреть онлайн
    Cкачать фильм Детские голоса бесплатно
    Детские голоса скачать торрент в хорошем качестве
    Детские голоса смотреть онлайн бесплатно в хорошем качестве


    Вы не можете начинать темы
    Вы не можете отвечать на сообщения
    Вы не можете редактировать свои сообщения
    Вы не можете удалять свои сообщения
    Вы не можете голосовать в опросах
    Вы не можете прикреплять файлы к сообщениям
    Вы можете скачивать файлы