Ссылка на приватное зеркало нашего сайта всего за 1$. Внимание количество ограничено!!!

2 сезон

iTunes

1 сезон

1

iTunes

iTunes

iTunes

1 сезон

RePack

30

ИГРА 18+

pack

ВАЖНО

!!Акция!!

Alien_RageХит недели

RePack

MK11
pack

Забери бонус

RePack

jed

!!Акция!!

Alien_Rage

RePack

fifa19

RePack

Assassins Creed: Odyssey

RePack

NEED FOR SPEED™ PAYBACK

4 сезон

9 сезон

Бесстыжие 9 сезон

Все сериалы

все сериалы на PB.wtf

RePack

FAR CRY 5
  

20 футов под землёй: И пала тьма / 20 Ft Below: The Darkness Descending (Марк Клебанофф / Marc Clebanoff) [2014, США, триллер, WEB-DLRip,Любительский (двухголосый)[den904, DeadSno] pb.wtf

20 футов под землёй: И пала тьма через торрент pb.wtf

Качают: 1 [ 0 KB/s ]
Размер: 1.32 GB | Добавлен: 6 лет 6 мес. назад | Торрент скачан:298 раз
Скачать  

06-04-2014 11:03 20 футов под землёй: И пала тьма Скачать торрент  

20 футов под землёй: И пала тьма / 20 Ft Below: The Darkness Descending

  • Год выпуска: 2014
  • Страна:США
  • Жанр:триллер
  • Продолжительность:01:36:04
  • Перевод:Любительский (двухголосый)[den904, DeadSno]
  • Субтитры: Нет
  • Режиссер: Марк Клебанофф / Marc Clebanoff
  • В ролях:

    Дэнни Трехо (Angel), Кинга Филиппс (Chelsea), Фрэнк Крюгер (Jake), Джон Хенниган (Razor), Тиффани Адамс (Gabriel), Кристофф Ст. Джон (Smitty), Луис Мэндилор (Lockeheed), Майкл Рене Уолтон (Skeeter), Даррен Дарнбаро (Ajax), Чейз Остин (Flash), Ницци Файрес (Alexis), Вайли Смолл (Harmony)

    • Описание:
      Под улицами Нью-Йорка, в тени заброшенных тоннелей метро, скрыт мрачный и опасный мир. Когда молодая девушка-режиссер отправляется в эти тоннели, она обнаруживает там нечто пострашнее тьмы.

    Мировая премьера:18 марта 2014

    • Качество: WEB-DLRip
    • Формат: AVI
    • Видео кодек: XviD
    • Аудио кодек:AC3
    • Видео: XviD, 720x400 (16:9), 1510 kbps, 23,976 fps, 0,219 bpp
    • Аудио №1: AC3 / 2.0 / 48 kHz / 192 kbps / 16 bit[Russian]
    • Аудио №2: AC3 / 2.0 / 48 kHz / 256 kbps / 16 bit [English]


    Код:

    General
    Complete name                            : D:\Торенты\20.Ft.Below.The.Darkness.Descending.2014.WEB.DLRip.avi
    Format                                   : AVI
    Format/Info                              : Audio Video Interleave
    File size                                : 1.32 GiB
    Duration                                 : 1h 36mn
    Overall bit rate                         : 1 973 Kbps
    Writing application                      : VirtualDubMod 1.5.10.2 (build 2542/release)
    Writing library                          : VirtualDubMod build 2542/release

    Video
    ID                                       : 0
    Format                                   : MPEG-4 Visual
    Format profile                           : Advanced Simple@L5
    Format settings, BVOP                    : 1
    Format settings, QPel                    : No
    Format settings, GMC                     : No warppoints
    Format settings, Matrix                  : Default (H.263)
    Codec ID                                 : XVID
    Codec ID/Hint                            : XviD
    Duration                                 : 1h 36mn
    Bit rate                                 : 1 511 Kbps
    Width                                    : 720 pixels
    Height                                   : 400 pixels
    Display aspect ratio                     : 16:9
    Frame rate                               : 23.976 fps
    Color space                              : YUV
    Chroma subsampling                       : 4:2:0
    Bit depth                                : 8 bits
    Scan type                                : Progressive
    Compression mode                         : Lossy
    Bits/(Pixel*Frame)                       : 0.219
    Stream size                              : 1.01 GiB (77%)
    Writing library                          : XviD 73

    Audio #1
    ID                                       : 1
    Format                                   : AC-3
    Format/Info                              : Audio Coding 3
    Mode extension                           : CM (complete main)
    Codec ID                                 : 2000
    Duration                                 : 1h 36mn
    Bit rate mode                            : Constant
    Bit rate                                 : 192 Kbps
    Channel(s)                               : 2 channels
    Channel positions                        : Front: L R
    Sampling rate                            : 48.0 KHz
    Bit depth                                : 16 bits
    Compression mode                         : Lossy
    Stream size                              : 132 MiB (10%)
    Alignment                                : Split accross interleaves
    Interleave, duration                     : 42 ms (1.00 video frame)
    Interleave, preload duration             : 500 ms

    Audio #2
    ID                                       : 2
    Format                                   : AC-3
    Format/Info                              : Audio Coding 3
    Mode extension                           : CM (complete main)
    Codec ID                                 : 2000
    Duration                                 : 1h 36mn
    Bit rate mode                            : Constant
    Bit rate                                 : 256 Kbps
    Channel(s)                               : 2 channels
    Channel positions                        : Front: L R
    Sampling rate                            : 48.0 KHz
    Bit depth                                : 16 bits
    Compression mode                         : Lossy
    Stream size                              : 176 MiB (13%)
    Alignment                                : Split accross interleaves
    Interleave, duration                     : 42 ms (1.00 video frame)
    Interleave, preload duration             : 500 ms

    Скриншоты:

    Каталог Новинок (Фильмы-трейлеры, Игры, Сериалы, Мультфильмы)

    © Оформление by Raven
    pb.wtf



  • Скачать 20 футов под землёй: И пала тьма через торрент http://i4.imageban.ru/out/2014/04/06/5d4be37f4ff449a118c9f8d394020f31.png Скачать фильм 20 футов под землёй: И пала тьма через торрент бесплантно в хорошем качестве Описание:Под улицами Нью-Йорка, в тени заброшенных тоннелей метро, скрыт мрачный и опасный мир. Когда молодая девушка-режиссер отправляется ... 8.2 10 10
    Торрент: Зарегистрирован [2014-04-06 11:03] · скачан: 298 раз
    Статус: √ проверено
    Размер: 1.32 GB
    Как cкачать? Как скачать 20 футов под землёй: И пала тьма через торрент | qTorrent

    % Раздел Тема Автор DL S | L
    Фильмы 2014 (Звук TS, Cam, VO, DVO) [ 2.06 GB ] 20 футов под землёй: И пала тьма / 20 Ft Below: The Darkness Descending [2014 WEB-DLRip Любительский двухголосый] coc900 Скачать
    1 | 0


    Последний раз редактировалось: Ворон (2014-04-06 11:57), всего редактировалось 1 раз

    28-11-2019 20:33  

    Отключить всю рекламу на сайте

    06-04-2014 11:13 20 футов под землёй: И пала тьма Скачать торрент  

    этого Трехо во все трешаки запихали, подташнивает уже...pb.wtf



    06-04-2014 11:17 20 футов под землёй: И пала тьма Скачать торрент  

    ТаможеНик, почти соглашусь, но, с другой стороны, куда ж его ещё - в "Спокойной ночи, малыши" ? pb.wtf



    06-04-2014 11:33 20 футов под землёй: И пала тьма Скачать торрент  

    Дэнни Трешак sarcasticpb.wtf



    06-04-2014 15:36 20 футов под землёй: И пала тьма Скачать торрент  

    ужасно плохой фильм.pb.wtf



    06-04-2014 16:06 20 футов под землёй: И пала тьма Скачать торрент  

    Цитата:

    20 футов под землёй: И пала тьма / 20 Ft Below: The Darkness Descending (Марк Клебанофф / Marc Clebanoff) [2014, США, триллер, WEB-DLRip,Любительский (двухголосый)[den904, DeadSno]

    pb.wtf



    13-04-2014 12:08 20 футов под землёй: И пала тьма Скачать торрент  

    го--о а не фильмpb.wtf



      Дорогой пользователь! Огромная просьба, поблагодарите релизера, оцените раздачу и оставьте свои комментарий, если Вы скачали 20 футов под землёй: И пала тьма через торрент бесплатно! Внесите свою лепту в развитие PiratBit!
      Комментировать посты могут только пользователи прошедшие не сложную регистрацию
      Показать сообщения:    

      20 футов под землёй: И пала тьма через торрент
      Скачать бесплатно 20 футов под землёй: И пала тьма
      20 футов под землёй: И пала тьма скачать торрент
      20 футов под землёй: И пала тьма смотреть онлайн
      Cкачать фильм 20 футов под землёй: И пала тьма бесплатно
      20 футов под землёй: И пала тьма скачать торрент в хорошем качестве
      20 футов под землёй: И пала тьма смотреть онлайн бесплатно в хорошем качестве


      Вы не можете начинать темы
      Вы не можете отвечать на сообщения
      Вы не можете редактировать свои сообщения
      Вы не можете удалять свои сообщения
      Вы не можете голосовать в опросах
      Вы не можете прикреплять файлы к сообщениям
      Вы можете скачивать файлы