2 сезон

iTunes

MVO

1

2 сезон

iTunes

iTunes

1 сезон

RePack

30

Новинка

ВАЖНО

ИГРА 18+

pack

RePack

MK11
pack

Легкие деньги

RePack

jed

RePack

fifa19

RePack

RDR2

RePack

NEED FOR SPEED™ PAYBACK

4 сезон

9 сезон

Бесстыжие 9 сезон

Все сериалы

все сериалы на PB.wtf

RePack

FAR CRY 5

Anonymous, добрый день, мы не успеваем собрать деньги на оплату серверов за декабрь и январь, помогите нам пожалуйста в это трудное время. В качестве благодарности мы отключим Вам всю рекламу на сайте (укажите свой ник в строку Ваше имя)!

×
  
Magnet ссылка

9 месяцев строгого режима / 9 mois ferme (Альбер Дюпонтель / Albert Dupontel) [2013, Франция, комедия, BDRip,Дублированный [НТВ+] pb.wtf

9 месяцев строгого режима через торрент pb.wtf

Размер: 1.38 GB | Добавлен: 6 лет 9 мес. назад | Торрент скачан:486 раз
Скачать  

06-04-2014 11:52 9 месяцев строгого режима Скачать торрент  

9 месяцев строгого режима / 9 mois ferme

  • Год выпуска: 2013
  • Страна:Франция
  • Жанр:комедия
  • Продолжительность:01:22:01
  • Перевод:Дублированный [НТВ+]
  • Субтитры: Нет
  • Режиссер: Альбер Дюпонтель / Albert Dupontel

  • В ролях:

    Сандрин Киберлэн (Ariane Felder), Альбер Дюпонтель (Bob Nolan), Николя Марье (Maître Trolos), Филипп Юшан (De Bernard), Филипп Дюкен (Dr. Toulate), Кристиан Эк (Lieutenant Edouard), Жиль Гастон-Дрейфус (M. De Lime), Лорэ Кэлами (Daisy, la collègue), Иоланда Моро (La mère de Bob), Мишель Фо (Le gynécologue), Були Ланнерс (Policier vidéosurveillance), Michèle Bernard-Requin (La Présidente du tribunal)

    • Описание:
      Ариана - судья, трудоголик и блондинка с высокими моральными принципами. Никаких мужчин. Никакой семьи. Никаких детей. Только работа, только закон. Кошмарная новость - и конец идиллии - она беременна! «Этого не может быть!» - кричит Ариана, начиная расследование самого невероятного дела в своей жизни!
      Распутать его отчаянно мешают собственные принципы и знаменитый вор. Но нарушить закон Ариане все же придется. И лучше бы ей не знать, что же на самом деле произошло!

    Мировая премьера:25 августа 2013

    • Качество: BDRip
    • Формат: AVI
    • Видео кодек: XviD
    • Аудио кодек:AC3
    • Видео: XviD, 720x304 (2.35:1), 2013 kbps, 23,976 fps, 0,384 bpp
    • Аудио: AC3 / 5.1 / 48 kHz / 384 kbps / 16 bit


    Код:

    General
    Complete name                            : D:\Торенты\9.mois.ferme.2013.BDRip.avi
    Format                                   : AVI
    Format/Info                              : Audio Video Interleave
    File size                                : 1.38 GiB
    Duration                                 : 1h 22mn
    Overall bit rate                         : 2 407 Kbps
    Movie name                               : 9.mois.ferme.2013.BDRip
    Director                                 : rip by maygli
    Writing application                      : VirtualDubModRus 1.5.10.2 (build 2542/release)

    Video
    ID                                       : 0
    Format                                   : MPEG-4 Visual
    Format profile                           : Advanced Simple@L5
    Format settings, BVOP                    : 1
    Format settings, QPel                    : No
    Format settings, GMC                     : No warppoints
    Format settings, Matrix                  : Custom
    Codec ID                                 : XVID
    Codec ID/Hint                            : XviD
    Duration                                 : 1h 22mn
    Bit rate                                 : 2 014 Kbps
    Width                                    : 720 pixels
    Height                                   : 304 pixels
    Display aspect ratio                     : 2.35:1
    Frame rate                               : 23.976 fps
    Color space                              : YUV
    Chroma subsampling                       : 4:2:0
    Bit depth                                : 8 bits
    Scan type                                : Progressive
    Compression mode                         : Lossy
    Bits/(Pixel*Frame)                       : 0.384
    Stream size                              : 1.15 GiB (84%)
    Writing library                          : XviD 65

    Audio
    ID                                       : 1
    Format                                   : AC-3
    Format/Info                              : Audio Coding 3
    Mode extension                           : CM (complete main)
    Codec ID                                 : 2000
    Duration                                 : 1h 22mn
    Bit rate mode                            : Constant
    Bit rate                                 : 384 Kbps
    Channel(s)                               : 6 channels
    Channel positions                        : Front: L C R, Side: L R, LFE
    Sampling rate                            : 48.0 KHz
    Bit depth                                : 16 bits
    Compression mode                         : Lossy
    Stream size                              : 225 MiB (16%)
    Alignment                                : Split accross interleaves
    Interleave, duration                     : 42 ms (1.00 video frame)
    Interleave, preload duration             : 500 ms
    Title                                    : Дубляж

    Скриншоты:

    Каталог Новинок (Фильмы-трейлеры, Игры, Сериалы, Мультфильмы)

    © Оформление by Raven
    pb.wtf



  • Скачать 9 месяцев строгого режима через торрент http://i4.imageban.ru/out/2014/04/06/9648367866d4188b5f0d7a12314a41dd.jpg Скачать фильм 9 месяцев строгого режима через торрент бесплантно в хорошем качестве Описание:Ариана - судья, трудоголик и блондинка с высокими моральными принципами. Никаких мужчин. Никакой семьи. Никаких детей. Только ... 9.1 10 12
    Торрент: Зарегистрирован [2014-04-06 11:52] · скачан: 486 раз
    Статус: √ проверено
    Размер: 1.38 GB
    Как cкачать? Как скачать 9 месяцев строгого режима через торрент | UTorrent

    % Раздел Тема Автор DL S | L
    T Фильмы [HD 720p, 1080p] (Хороший звук DUB, MVO) [ 3.54 GB ] 9 месяцев строгого режима / 9 mois ferme [2013 BDRip 720p by keeper.52] DUB + Original + Sub keeper.52 Скачать
    2 | 0
    Фильмы 2013 [DVDrip, WEB-DLRip, HDrip] [ 1.95 GB ] 9 месяцев строгого режима / 9 mois ferme [2013 BDRip-AVC by keeper.52] DUB + Original + Sub keeper.52 Скачать
    2 | 0
    Фильмы 2013 [DVDrip, WEB-DLRip, HDrip] [ 1.46 GB ] 9 месяцев строгого режима / 9 mois ferme [2013 BDRip-AVC] DUB potroks Скачать
    1 | 0
    Фильмы [HD 720p, 1080p] (Хороший звук DUB, MVO) [ 5.68 GB ] 9 месяцев строгого режима / 9 mois ferme [2013 BDRip 1080p [НТВ Ворон Скачать
    1 | 0
    Фильмы (DVD фильмы) [ 4.17 GB ] 9 месяцев строгого режима / 9 mois ferme [2013 DVD5] R5 voovaz Скачать
    1 | 0
    Фильмы (Blu-ray, BD-Remux, HDDVD) [ 15.18 GB ] 9 месяцев строгого режима / 9 mois ferme [2013 BDRemux 1080p / лицензия Ворон Скачать
    1 | 0
    Фильмы 2013 [DVDrip, WEB-DLRip, HDrip] [ 1.37 GB ] 9 месяцев строгого режима / 9 mois ferme [2013 HDRip [] Ворон Скачать
    1 | 0

    28-11-2019 20:33  

    Отключить всю рекламу на сайте

      Дорогой пользователь! Огромная просьба, поблагодарите релизера, оцените раздачу и оставьте свои комментарий, если Вы скачали 9 месяцев строгого режима через торрент бесплатно! Внесите свою лепту в развитие PiratBit!
      Комментировать посты могут только пользователи прошедшие не сложную регистрацию
      Показать сообщения:    

      9 месяцев строгого режима через торрент
      Скачать бесплатно 9 месяцев строгого режима
      9 месяцев строгого режима скачать торрент
      9 месяцев строгого режима смотреть онлайн
      Cкачать фильм 9 месяцев строгого режима бесплатно
      9 месяцев строгого режима скачать торрент в хорошем качестве
      9 месяцев строгого режима смотреть онлайн бесплатно в хорошем качестве


      Вы не можете начинать темы
      Вы не можете отвечать на сообщения
      Вы не можете редактировать свои сообщения
      Вы не можете удалять свои сообщения
      Вы не можете голосовать в опросах
      Вы не можете прикреплять файлы к сообщениям
      Вы можете скачивать файлы