Ссылка на приватное зеркало нашего сайта всего за 1$. Внимание количество ограничено!!!

2 сезон

iTunes

1 сезон

1

iTunes

iTunes

iTunes

1 сезон

RePack

30

ИГРА 18+

pack

ВАЖНО

!!Акция!!

Alien_RageХит недели

RePack

MK11
pack

Забери бонус

RePack

jed

!!Акция!!

Alien_Rage

RePack

fifa19

RePack

Assassins Creed: Odyssey

RePack

NEED FOR SPEED™ PAYBACK

4 сезон

9 сезон

Бесстыжие 9 сезон

Все сериалы

все сериалы на PB.wtf

RePack

FAR CRY 5
  

Радиоволна / Frequency (Грегори Хоблит) [2000 г., триллер, фантастика, драма, BDRip 1080p] Dub + 2xMVO + 2xAVO + Original Eng pb.wtf

Радиоволна через торрент pb.wtf

Раздают: 1 [ 0 KB/s ]
Размер: 13.87 GB | Добавлен: 1 год назад | Торрент скачан:135 раз
Скачать  

06-04-2014 13:19 Радиоволна Скачать торрент  

Радиоволна / FrequencyГод выпуска: 2000
Страна: США
Жанр: триллер, фантастика, драма
Продолжительность: 01:58:59
Перевод: Дубляж + 2 x профессиональный (многоголосый закадровый) + 2 x авторский (одноголосый закадровый, Гаврилов / Живов)
Субтитры: Русские, Английские

Режиссер: Грегори Хоблит
Продюссер: Билл Карраро, Тоби Эммерик, Грегори Хоблит
Сценарий: Тоби Эммерик

Бюджет: $31 000 000
Премьера в мире: 28 апреля 2000



В ролях: Деннис Куэйд, Джеймс Кэвизел, Шоун Дойл, Элизабет Митчелл, Андре Брогер, Ноа Эммерик, Мелисса Эррико, Дэниэл Хенсон, Джордан Бриджес, Стефен Джофф и др.
Описание: Полицейский Джон Салливэн (Джеймс Кэвизел) случайно связывается по любительской радиостанции со своим покойным отцом, пожарным Фрэнком Салливэном (Деннис Куэйд), который погиб во время тушения пожара много лет назад. Удостоверившись в том, что они действительно сын и отец, сын начал давать советы отцу, как можно изменить прошлое, чтобы предотвратить трагическое событие. Но они еще не догадываются, к каким необратимым последствиям может привести изменение прошлого...
Качество: BDRip 1080p
Формат: MKV
Видео кодек: MPEG-4 AVC
Видео: ~14000 kbps, 1920x816 (2,35:1), 23,976 кадра/сек
Аудио#1: Русский AC3 5.1, 48 khz, 448 kbps |Дубляж|
Аудио#2: Русский AC3 5.1, 48 khz, 448 kbps |Многоголосый|
Аудио#3: Русский AC3 5.1, 48 khz, 448 kbps |Многоголосый (R5)|
Аудио#4: Русский AC3 5.1, 48 khz, 448 kbps |Гаврилов|
Аудио#5: Русский AC3 5.1, 48 khz, 448 kbps |Живов|
Аудио#6: Английский AC3 5.1, 48 khz, 448 kbps

Формат : Matroska
Версия формата : Version 2
Размер файла : 13,9 Гбайт
Продолжительность : 1 ч. 59 м.
Общий поток : 16,7 Мбит/сек
Название фильма : Released by shurikello
Дата кодирования : UTC 2011-09-22 21:25:06
Программа кодирования : mkvmerge v4.9.1 ('Ich will') сборка от Jul 11 2011 23:53:15
Библиотека кодирования : libebml v1.2.1 + libmatroska v1.1.1

Видео
Идентификатор : 1
Формат : AVC
Формат/Информация : Advanced Video Codec
Профиль формата : High@L4.1
Параметр CABAC формата : Да
Параметр ReFrames формата : 5 кадров
Идентификатор кодека : V_MPEG4/ISO/AVC
Продолжительность : 1 ч. 59 м.
Битрейт : 14,0 Мбит/сек
Ширина : 1920 пикселей
Высота : 816 пикселей
Соотношение сторон : 2,35:1
Частота кадров : 23,976 кадра/сек
Цветовое пространство : YUV
Субдискретизация насыщенности : 4:2:0
Битовая глубина : 8 бит
Тип развёртки : Прогрессивная
Бит/(Пиксели*Кадры) : 0.373
Размер потока : 11,4 Гбайт (82%)
Библиотека кодирования : x264 core 116 r2074 2641b9e
Настройки программы : cabac=1 / ref=5 / deblock=1:-3:-3 / analyse=0x3:0x133 / me=umh / subme=11 / psy=1 / psy_rd=1.00:0.00 / mixed_ref=1 / me_range=32 / chroma_me=1 / trellis=2 / 8x8dct=1 / cqm=0 / deadzone=21,11 / fast_pskip=0 / chroma_qp_offset=-2 / threads=3 / sliced_threads=0 / nr=0 / decimate=1 / interlaced=0 / bluray_compat=0 / constrained_intra=0 / bframes=11 / b_pyramid=2 / b_adapt=2 / b_bias=0 / direct=3 / weightb=1 / open_gop=0 / weightp=2 / keyint=250 / keyint_min=23 / scenecut=40 / intra_refresh=0 / rc=2pass / mbtree=0 / bitrate=14000 / ratetol=1.0 / qcomp=0.60 / qpmin=0 / qpmax=69 / qpstep=4 / cplxblur=20.0 / qblur=0.5 / ip_ratio=1.40 / pb_ratio=1.30 / aq=2:0.90
Язык : English

Аудио #1
Идентификатор : 2
Формат : AC-3
Формат/Информация : Audio Coding 3
Расширение режима : CM (complete main)
Идентификатор кодека : A_AC3
Продолжительность : 1 ч. 59 м.
Вид битрейта : Постоянный
Битрейт : 448 Кбит/сек
Каналы : 6 каналов
Расположение каналов : Front: L C R, Side: L R, LFE
Частота : 48,0 КГц
Битовая глубина : 16 бит
Метод сжатия : С потерями
Размер потока : 382 Мбайт (3%)
Заголовок : Дубляж, AC3 5.1, 448 kbps
Язык : Russian

Аудио #2
Идентификатор : 3
Формат : AC-3
Формат/Информация : Audio Coding 3
Расширение режима : CM (complete main)
Идентификатор кодека : A_AC3
Продолжительность : 1 ч. 59 м.
Вид битрейта : Постоянный
Битрейт : 448 Кбит/сек
Каналы : 6 каналов
Расположение каналов : Front: L C R, Side: L R, LFE
Частота : 48,0 КГц
Битовая глубина : 16 бит
Метод сжатия : С потерями
Размер потока : 382 Мбайт (3%)
Заголовок : Многоголосый, AC3 5.1, 448 kbps
Язык : Russian

Аудио #3
Идентификатор : 4
Формат : AC-3
Формат/Информация : Audio Coding 3
Расширение режима : CM (complete main)
Идентификатор кодека : A_AC3
Продолжительность : 1 ч. 59 м.
Вид битрейта : Постоянный
Битрейт : 448 Кбит/сек
Каналы : 6 каналов
Расположение каналов : Front: L C R, Side: L R, LFE
Частота : 48,0 КГц
Битовая глубина : 16 бит
Метод сжатия : С потерями
Размер потока : 382 Мбайт (3%)
Заголовок : Многоголосый (R5), AC3 5.1, 448 kbps
Язык : Russian

Аудио #4
Идентификатор : 5
Формат : AC-3
Формат/Информация : Audio Coding 3
Расширение режима : CM (complete main)
Идентификатор кодека : A_AC3
Продолжительность : 1 ч. 59 м.
Вид битрейта : Постоянный
Битрейт : 448 Кбит/сек
Каналы : 6 каналов
Расположение каналов : Front: L C R, Side: L R, LFE
Частота : 48,0 КГц
Битовая глубина : 16 бит
Метод сжатия : С потерями
Размер потока : 382 Мбайт (3%)
Заголовок : Гаврилов, AC3 5.1, 448 kbps
Язык : Russian

Аудио #5
Идентификатор : 6
Формат : AC-3
Формат/Информация : Audio Coding 3
Расширение режима : CM (complete main)
Идентификатор кодека : A_AC3
Продолжительность : 1 ч. 59 м.
Вид битрейта : Постоянный
Битрейт : 448 Кбит/сек
Каналы : 6 каналов
Расположение каналов : Front: L C R, Side: L R, LFE
Частота : 48,0 КГц
Битовая глубина : 16 бит
Метод сжатия : С потерями
Размер потока : 382 Мбайт (3%)
Заголовок : Живов, AC3 5.1, 448 kbps
Язык : Russian

Аудио #6
Идентификатор : 7
Формат : AC-3
Формат/Информация : Audio Coding 3
Расширение режима : CM (complete main)
Идентификатор кодека : A_AC3
Продолжительность : 1 ч. 59 м.
Вид битрейта : Постоянный
Битрейт : 448 Кбит/сек
Каналы : 6 каналов
Расположение каналов : Front: L C R, Side: L R, LFE
Частота : 48,0 КГц
Битовая глубина : 16 бит
Метод сжатия : С потерями
Размер потока : 382 Мбайт (3%)
Заголовок : AC3 5.1, 448 kbps
Язык : English

Текст #1
Идентификатор : 8
Формат : UTF-8
Идентификатор кодека : S_TEXT/UTF8
Идентификатор кодека/Информация : UTF-8 Plain Text
Язык : Russian

Текст #2
Идентификатор : 9
Формат : UTF-8
Идентификатор кодека : S_TEXT/UTF8
Идентификатор кодека/Информация : UTF-8 Plain Text
Язык : English

Меню
00:00:00.000 : en:Main Titles
00:07:00.686 : en:October 10, 1969
00:11:33.693 : en:October 10, 1999
00:16:54.847 : en:On The Air
00:22:22.941 : en:The Ball Game
00:27:25.543 : en:History Lesson
00:33:53.364 : en:30 Years Ago
00:44:11.915 : en:The Buxton Fire
00:46:17.574 : en:Catching Up
00:54:29.232 : en:Repercussions
00:57:29.779 : en:"Something Happened"
01:07:21.704 : en:Hunting The Nightingale
01:11:15.838 : en:Suspect And Victim
01:17:21.036 : en:Evidence
01:21:45.033 : en:Skeletons In The Closet
01:26:19.107 : en:Under Suspicion
01:31:47.201 : en:Detained
01:37:52.533 : en:Last Flight Of The Nightingale
01:44:08.842 : en:Safe At Home
01:51:48.935 : en:Return Of The Nightingale
01:54:11.311 : en:The Sullivans/End Titles
pb.wtf



Скачать Радиоволна через торрент http://pic.kartinco.top/images/6/pmvdn.jpg Скачать фильм Радиоволна через торрент бесплантно в хорошем качестве Описание: Полицейский Джон Салливэн (Джеймс Кэвизел) случайно связывается по любительской радиостанции со своим покойным отцом, пожарным ... 9.6 10 19
Info! Серебряная раздача, засчитывается только 50% скачанного.
Торрент: Зарегистрирован [2019-10-18 15:56] · скачан: 135 раз
Статус: √ проверено
Размер: 13.87 GB
Как cкачать? Как скачать Радиоволна через торрент | qTorrent



Последний раз редактировалось: -Lexx- (2019-10-18 15:58), всего редактировалось 2 раз(а)

28-11-2019 20:33  

Отключить всю рекламу на сайте

18-10-2019 12:35 Радиоволна Скачать торрент  

фильм - бомбаpb.wtf



21-10-2019 22:07 Радиоволна Скачать торрент  

Интересный фильм. Спс за рип!pb.wtf



22-10-2019 09:52 Радиоволна Скачать торрент  

Тоже один из любимых фильмов. Утащил в коллекцию.pb.wtf



31-08-2020 16:31 Радиоволна Скачать торрент  

фильм очень понравился. пожалел, что смотрел без жены.pb.wtf



    Дорогой пользователь! Огромная просьба, поблагодарите релизера, оцените раздачу и оставьте свои комментарий, если Вы скачали Радиоволна через торрент бесплатно! Внесите свою лепту в развитие PiratBit!
    Комментировать посты могут только пользователи прошедшие не сложную регистрацию
    Показать сообщения:    

    Радиоволна через торрент
    Скачать бесплатно Радиоволна
    Радиоволна скачать торрент
    Радиоволна смотреть онлайн
    Cкачать фильм Радиоволна бесплатно
    Радиоволна скачать торрент в хорошем качестве
    Радиоволна смотреть онлайн бесплатно в хорошем качестве


    Вы не можете начинать темы
    Вы не можете отвечать на сообщения
    Вы не можете редактировать свои сообщения
    Вы не можете удалять свои сообщения
    Вы не можете голосовать в опросах
    Вы не можете прикреплять файлы к сообщениям
    Вы можете скачивать файлы