Ссылка на приватное зеркало всего за 1$. Внимание количество ограничено!!!

OK

1+1

iTunes

мы

OK

1

WEB-DLRip

Джокер

Пифагор

Ведьмак / The Witcher сериал

iTunes

ПШазам

ОК

Оно 2

iTunes

30
pack

Вам бонус

ВАЖНО

!!Акция!!

Alien_RageХит недели

RePack

Resident Evil 21

ИГРА 18+

pack

RePack

jed

RePack

fifa19

RePack

Assassins Creed: Odyssey

RePack

NEED FOR SPEED™ PAYBACK

4 сезон

9 сезон

Бесстыжие 9 сезон

Все сериалы

все сериалы на PB.wtf

RePack

FAR CRY 5
  

Мертвое сердце / Cерии: 1-4 серия из 4 (Артур Румынский) [2014 г., Криминал, мелодрама, SATRip] pb.wtf

Мертвое сердце через торрент pb.wtf

Размер: 2.38 GB | Добавлен: 5 лет 9 мес. назад | Торрент скачан:727 раз
Скачать  

06-04-2014 16:13 Мертвое сердце Скачать торрент  

Мертвое сердце Год выпуска: 2014
Страна: Россия ООО «АЛЬЯНС ПРОФИ»
Жанр: Криминал, мелодрама
Продолжительность: 4 x ~ 00:45:30

Режиссер: Артур Румынский
Продюссер: Александр Черняев

Премьера в мире: 6 апреля 2014

В ролях: Михаил Евланов, Евгений Воловенко, Мария Гузеева, Мария Киреева, Руслан Ягудин, Алексей Рыжков, Константин Адаев, Ирина Бразговка, Светлана Рубан, Павел Новиков, Кирилл Захаров

Описание: Ученый с большой буквы и талантливый изобретатель – химик Артём Васильев — разработал уникальное лекарство против рака. Но его мечте спасти тысячи жизней кто-то жестоко помешал. Неизвестные подожгли лабораторию Артёма, во время инцидента погибла его жена, исчез сын, канули в Лету все архивы и данные разработок. Новый удар Васильеву нанесли следственные органы: теперь он – главный подозреваемый в поджоге и убийстве жены. От ареста его спасает только то, что на месте преступления задерживают исполнителя – бывшего военного химика Фёдора Пашнина, которого с ожогами и под конвоем доставляют в больницу. Одержимый местью Артём проникает в палату к Фёдору, чтобы расправиться с тем, кто отнял у него самое дорогое в жизни. И там совершенно неожиданно сталкивается с киллером, охотящимся на Пашнина. Своим вмешательством Артём, сам того не желая, спасает своего врага, который сообщает: его сын жив, и только он знает, как найти мальчика.....
Качество: SATRip
Формат: AVI
Видео кодек: XviD
Аудио кодек: MP3
Видео: Xvid 720x400, 25.00fps, 1 801 Kbps
Аудио: MPEG Audio Layer 3, 48000Hz, stereo, 128kbps

Релиз от: DGEKIGAN





General
Complete name : K:\Mertvoe.serdce.SATRip\Mertvoe.serdce.01.SATRip.avi
Format : AVI
Format/Info : Audio Video Interleave
File size : 620 MiB
Duration : 44mn 41s
Overall bit rate : 1 939 Kbps
Writing library : VirtualDub build 32817/release

Video
ID : 0
Format : MPEG-4 Visual
Format profile : Advanced Simple@L5
Format settings, BVOP : 2
Format settings, QPel : No
Format settings, GMC : No warppoints
Format settings, Matrix : Default (MPEG)
Codec ID : XVID
Codec ID/Hint : XviD
Duration : 44mn 41s
Bit rate : 1 801 Kbps
Width : 720 pixels
Height : 400 pixels
Display aspect ratio : 16:9
Frame rate : 25.000 fps
Color space : YUV
Chroma subsampling : 4:2:0
Bit depth : 8 bits
Scan type : Progressive
Compression mode : Lossy
Bits/(Pixel*Frame) : 0.250
Stream size : 576 MiB (93%)
Writing library : XviD 1.2.1 (UTC 2008-12-04)

Audio
ID : 1
Format : MPEG Audio
Format version : Version 1
Format profile : Layer 3
Mode : Joint stereo
Mode extension : MS Stereo
Codec ID : 55
Codec ID/Hint : MP3
Duration : 44mn 41s
Bit rate mode : Constant
Bit rate : 128 Kbps
Channel(s) : 2 channels
Sampling rate : 48.0 KHz
Compression mode : Lossy
Stream size : 40.9 MiB (7%)
Alignment : Split accross interleaves
Interleave, duration : 40 ms (1.00 video frame)
Interleave, preload duration : 500 ms

pb.wtf



Скачать Мертвое сердце через торрент http://pic.kartinco.top/images/6/xmfwh.jpg Скачать фильм Мертвое сердце через торрент бесплантно в хорошем качестве Описание: Ученый с большой буквы и талантливый изобретатель – химик Артём Васильев — разработал уникальное лекарство против рака. Но его ... 9.4 10 14
Info! Золотая раздача, скачанное не засчитывается.
Торрент: Зарегистрирован [2014-04-06 16:13] · скачан: 727 раз
Статус: √ проверено
Размер: 2.38 GB
Как cкачать? Как скачать Мертвое сердце через торрент | qTorrent

28-11-2019 20:33  

Отключить всю рекламу на сайте

    Дорогой пользователь! Огромная просьба, поблагодарите релизера, оцените раздачу и оставьте свои комментарий, если Вы скачали Мертвое сердце через торрент бесплатно! Внесите свою лепту в развитие PiratBit!
    Комментировать посты могут только пользователи прошедшие не сложную регистрацию
    Показать сообщения:    

    Мертвое сердце через торрент
    Скачать бесплатно Мертвое сердце
    Мертвое сердце скачать торрент
    Мертвое сердце смотреть онлайн
    Cкачать фильм Мертвое сердце бесплатно
    Мертвое сердце скачать торрент в хорошем качестве
    Мертвое сердце смотреть онлайн бесплатно в хорошем качестве


    Вы не можете начинать темы
    Вы не можете отвечать на сообщения
    Вы не можете редактировать свои сообщения
    Вы не можете удалять свои сообщения
    Вы не можете голосовать в опросах
    Вы не можете прикреплять файлы к сообщениям
    Вы можете скачивать файлы