2 сезон

iTunes

MVO

1

2 сезон

iTunes

iTunes

1 сезон

RePack

30

Ultimate

ВАЖНО

ИГРА 18+

pack

RePack

MK11
pack

Легкие деньги

RePack

jed

RePack

fifa19

RePack

RDR2

RePack

NEED FOR SPEED™ PAYBACK

4 сезон

9 сезон

Бесстыжие 9 сезон

Все сериалы

все сериалы на PB.wtf

RePack

FAR CRY 5

Anonymous, добрый вечер, мы не успеваем собрать деньги на оплату серверов за декабрь и январь, помогите нам пожалуйста в это трудное время. В качестве благодарности мы отключим Вам всю рекламу на сайте (укажите свой ник в строку Ваше имя)!

×
  
Magnet ссылка

За сигаретами / Elle s'en va (Эмманюэль Берко / Emmanuelle Bercot) [ 2013 , Франция , комедия, драма , DVDRip ]MVO pb.wtf

За сигаретами через торрент pb.wtf

Размер: 1.46 GB | Добавлен: 6 лет 9 мес. назад | Торрент скачан:472 раза
Скачать  

07-04-2014 01:20 За сигаретами Скачать торрент  

За сигаретами / Elle s'en va
Год выпуска: 2013
Страна: Франция
Жанр: комедия, драма
Продолжительность: 01:48:29
Перевод: Профессиональный (многоголосый, закадровый)
Субтитры: Нет
Режиссер: Эмманюэль Берко / Emmanuelle Bercot
Сценарий: Эмманюэль Берко / Emmanuelle Bercot, Жером Тоннер / Jérôme Tonnerre
Продюсер: Оливье Делбоск / Olivier Delbosc, Марк Миссонье / Marc Missonnier, Кристин де Жекель / Christine De Jekel
Оператор: Гийом Шиффман / Guillaume Schiffman
В ролях:
Катрин Денёв (Bettie), Немо Шиффман (Charly), Жерар Гаруст (Alain), Камилль (Muriel), Клоди Жансак (Annie), Поль Ами (Marco), Милен Демонжо (Fanfan), Хафсия Херци (Jeanne), Эвелин Леклерк (Miss Champagne 1969), Валери Лагранж (Miss France 1969), Валентин Гийом (Erwan), Пьер Тульгоат (Papy cigarette)
Мировая премьера: 15 февраля 2013
Описание:
Что может огорчить женщину? Развалившийся роман? Проблемы с собственным рестораном на грани банкротства? От такого любой впадет в уныние. Но только не Бэтти. Первым делом нужно перекурить, решает она и отправляется за сигаретами в соседний бар. Так начинается ее головокружительная одиссея: за несколько дней она проедет в своем стареньком «мерседесе» половину Франции, чтобы понять, что эта дорога и есть её путь к счастью.
Рейтинг
kinopoisk.ru: 7.368 (395)
imdb.com: 6.50 (535)
Качество: DVDRip
Формат: AVI
Видео кодек: XviD
Аудио кодек: AC3
Видео: 1724 Кбит/сек, 720*384 (1,85:1), в 25,000 кадров/сек, MPEG-4 Visual (XviD)
Аудио: 192 Кбит/сек, 48,0 КГц, 16 бит, 2 канала, AC-3
Общее
Кол-во : 284
Кол-во потоков такого типа : 1
Тип потока : General
Тип потока : Общее
Идентификатор типа потока : 0
Inform : AVI: 1,46 Гбайт, 1 ч. 48 м.
Кол-во видеопотоков : 1
Кол-во аудиопотоков : 1
Video_Format_List : MPEG-4 Visual
Video_Format_WithHint_List : MPEG-4 Visual (XviD)
Видеокодеки : XviD
Audio_Format_List : AC-3
Audio_Format_WithHint_List : AC-3
Аудиокодеки : AC3
Полное имя : H:\ТОРРЕНТЫ\За сигаретами.avi
Имя папки : H:\ТОРРЕНТЫ
Имя файла : За сигаретами
Расширение : avi
Формат : AVI
Формат : AVI
Формат/Информация : Audio Video Interleave
Формат/Используется в : avi
Коммерческое название : AVI
Интернет-тип носителя : video/vnd.avi
Чередующаяся : Yes
Кодек : AVI
Кодек : AVI
Кодек/Информация : Audio Video Interleave
Кодек/Используется в : avi
Размер файла : 1566699520
Размер файла : 1,46 Гбайт
Размер файла : 1 Гбайт
Размер файла : 1,5 Гбайт
Размер файла : 1,46 Гбайт
Размер файла : 1,459 Гбайт
Продолжительность : 6509280
Продолжительность : 1 ч. 48 м.
Продолжительность : 1 ч. 48 м. 29 с. 280 мс.
Продолжительность : 1 ч. 48 м.
Продолжительность : 01:48:29.280
Общий поток : 1925497
Общий поток : 1925 Кбит/сек
Размер потока : 7903874
Размер потока : 7,54 Мбайт (1%)
Размер потока : 8 Мбайт
Размер потока : 7,5 Мбайт
Размер потока : 7,54 Мбайт
Размер потока : 7,538 Мбайт
Размер потока : 7,54 Мбайт (1%)
Пропорции потока : 0.00504
Дата файла : UTC 2014-04-07 01:03:43.641
Дата файла (местная) : 2014-04-07 08:03:43.641
Дата изменения файла : UTC 2014-04-07 00:28:01.323
Дата изменения файла (местная) : 2014-04-07 07:28:01.323
Программа кодирования : VirtualDubMod 1.5.10.2 (build 2540/release)
Библиотека кодирования : VirtualDubMod build 2540/release
Библиотека кодирования : VirtualDubMod build 2540/release

Видео
Кол-во : 271
Кол-во потоков такого типа : 1
Тип потока : Video
Тип потока : Видео
Идентификатор типа потока : 0
StreamOrder : 0
Inform : 1724 Кбит/сек, 720*384 (1,85:1), в 25,000 кадров/сек, MPEG-4 Visual (XviD) (Advanced Simple@L5) (BVOP2)
Идентификатор : 0
Идентификатор : 0
Формат : MPEG-4 Visual
Коммерческое название : MPEG-4 Visual
Профиль формата : Advanced Simple@L5
Настройки формата : BVOP2
Параметр BVOP формата : 2
Параметр BVOP формата : 2
Параметр QPel формата : No
Параметр QPel формата : Нет
Параметр GMC формата : 0
Параметр GMC формата : Без точки перехода
Параметр матрицы формата : Default (MPEG)
Параметр матрицы формата : Default (MPEG)
Интернет-тип носителя : video/MP4V-ES
Идентификатор кодека : XVID
Идентификатор кодека/Подсказка : XviD
Идентификатор кодека/Ссылка : http://mediaarea.net/XVID
Кодек : XVID
Кодек : XviD
Кодек/Семейство : MPEG-4V
Кодек/Информация : XviD project
Кодек/Ссылка : http://www.xvid.org/Downloads.15.0.html
Кодек/CC : XVID
Профиль кодека : Advanced Simple@L5
Настройки кодека : BVOP
Параметр пакетного потока данных кодека : No
Параметр BVOP кодека : Yes
Параметр QPel кодека : No
Параметр GMC кодека : 0
Параметр GMC кодека : Без точки перехода
Параметр матрицы кодека : Default (MPEG)
Продолжительность : 6509280
Продолжительность : 1 ч. 48 м.
Продолжительность : 1 ч. 48 м. 29 с. 280 мс.
Продолжительность : 1 ч. 48 м.
Продолжительность : 01:48:29.280
Битрейт : 1723801
Битрейт : 1724 Кбит/сек
Ширина : 720
Ширина : 720 пикселей
Высота : 384
Высота : 384 пикселя
Пропорции пикселя : 1.000
Соотношение сторон : 1.875
Соотношение сторон : 1,85:1
Частота кадров : 25.000
Частота кадров : 25,000 кадров/сек
Счётчик кадров : 162732
Разрешение : 8
Разрешение : 8 бит
Колориметрия : 4:2:0
Цветовое пространство : YUV
Субдискретизация насыщенности : 4:2:0
Битовая глубина : 8
Битовая глубина : 8 бит
Тип развёртки : Progressive
Тип развёртки : Прогрессивная
Переплетение : PPF
Переплетение : Прогрессивная
Метод сжатия : Lossy
Метод сжатия : С потерями
Бит/(Пиксели*Кадры) : 0.249
Задержка : 0
Задержка : 00:00:00.000
Размер потока : 1402587518
Размер потока : 1,31 Гбайт (90%)
Размер потока : 1 Гбайт
Размер потока : 1,3 Гбайт
Размер потока : 1,31 Гбайт
Размер потока : 1,306 Гбайт
Размер потока : 1,31 Гбайт (90%)
Пропорции потока : 0.89525
Библиотека кодирования : XviD0050
Библиотека кодирования : XviD 1.2.1 (UTC 2008-12-04)
Библиотека кодирования/Имя : XviD
Библиотека кодирования/Version : 1.2.1
Библиотека кодирования/Дата : UTC 2008-12-04

Аудио
Кол-во : 244
Кол-во потоков такого типа : 1
Тип потока : Audio
Тип потока : Аудио
Идентификатор типа потока : 0
StreamOrder : 1
Inform : 192 Кбит/сек, 48,0 КГц, 16 бит, 2 канала, AC-3
Идентификатор : 1
Идентификатор : 1
Формат : AC-3
Формат/Информация : Audio Coding 3
Коммерческое название : AC-3
Расширение режима : CM (complete main)
Параметр Endianness формата : Big
Идентификатор кодека : 2000
Кодек : AC3
Кодек : AC3
Кодек/Семейство : AC3
Кодек/Информация : Dolby AC3
Кодек/CC : 2000
Продолжительность : 6508672
Продолжительность : 1 ч. 48 м.
Продолжительность : 1 ч. 48 м. 28 с. 672 мс.
Продолжительность : 1 ч. 48 м.
Продолжительность : 01:48:28.672
Вид битрейта : CBR
Вид битрейта : Постоянный
Битрейт : 192000
Битрейт : 192 Кбит/сек
Каналы : 2
Каналы : 2 канала
Расположение каналов : Front: L R
Расположение каналов : 2/0/0
Частота : 48000
Частота : 48,0 КГц
Количество образцов : 312416256
Разрешение : 16
Разрешение : 16 бит
Битовая глубина : 16
Битовая глубина : 16 бит
Метод сжатия : Lossy
Метод сжатия : С потерями
Задержка : 0
Задержка : 00:00:00.000
Задержка в оригинале : Stream
Задержка в оригинале : 'Сырой' поток
Задержка видео : 0
Задержка видео : 0
Размер потока : 156208128
Размер потока : 149 Мбайт (10%)
Размер потока : 149 Мбайт
Размер потока : 149 Мбайт
Размер потока : 149 Мбайт
Размер потока : 149,0 Мбайт
Размер потока : 149 Мбайт (10%)
Пропорции потока : 0.09971
Выравнивание : Split
Выравнивание : Разделение по промежуткам
Продолжительность промежутка : 1.00
Продолжительность промежутка : 40
Продолжительность промежутка : 40 мс. (1,00 видеокадр)
Время предзагрузки промежутка : 500
Время предзагрузки промежутка : 500 мс.
bsid : 4
dialnorm : -31
dialnorm/String : -31 dB
compr : -0.28
compr/String : -0.28 dB
dsurmod : 0
acmod : 2
lfeon : 0
dialnorm_Average : -31
dialnorm_Average/String : -31 dB
dialnorm_Minimum : -31
dialnorm_Minimum/String : -31 dB
dialnorm_Maximum : -31
dialnorm_Maximum/String : -31 dB
dialnorm_Count : 389
compr_Average : -1.86
compr_Average/String : -1.86 dB
compr_Minimum : -8.16
compr_Minimum/String : -8.16 dB
compr_Maximum : -0.28
compr_Maximum/String : -0.28 dB
compr_Count : 389


pb.wtf



Скачать За сигаретами через торрент http://cs540103.vk.me/c608827/v608827651/5b68/WD8xdtHq7Ow.jpg Скачать фильм За сигаретами через торрент бесплантно в хорошем качестве Описание:Что может огорчить женщину? Развалившийся роман? Проблемы с собственным рестораном на грани банкротства? От такого любой впадет в ... 9.8 10 12
Торрент: Зарегистрирован [2014-04-07 01:20] · скачан: 472 раз
Статус: √ проверено
Размер: 1.46 GB
Как cкачать? Как скачать За сигаретами через торрент | UTorrent

28-11-2019 20:33  

Отключить всю рекламу на сайте

07-04-2014 05:07 За сигаретами Скачать торрент  

Спасибо! Франция снимает хорошее кино!pb.wtf



07-04-2014 05:10 За сигаретами Скачать торрент  

lunohod29 писал(а):

Спасибо! Франция снимает хорошее кино!

Не за что и согласен на счет Франции! pb.wtf



07-04-2014 17:48 За сигаретами Скачать торрент  

Как фильм ?pb.wtf



14-04-2014 04:53 За сигаретами Скачать торрент  

Фильм - полная ватаpb.wtf



    Дорогой пользователь! Огромная просьба, поблагодарите релизера, оцените раздачу и оставьте свои комментарий, если Вы скачали За сигаретами через торрент бесплатно! Внесите свою лепту в развитие PiratBit!
    Комментировать посты могут только пользователи прошедшие не сложную регистрацию
    Показать сообщения:    

    За сигаретами через торрент
    Скачать бесплатно За сигаретами
    За сигаретами скачать торрент
    За сигаретами смотреть онлайн
    Cкачать фильм За сигаретами бесплатно
    За сигаретами скачать торрент в хорошем качестве
    За сигаретами смотреть онлайн бесплатно в хорошем качестве


    Вы не можете начинать темы
    Вы не можете отвечать на сообщения
    Вы не можете редактировать свои сообщения
    Вы не можете удалять свои сообщения
    Вы не можете голосовать в опросах
    Вы не можете прикреплять файлы к сообщениям
    Вы можете скачивать файлы