новый адрес пиратбит piratbit
Мега распродажа FORZA HORIZON 4 ULTIMATE+ВСЕ DLC+ОНЛАЙН всего за 499р. 349 руб. (супер цена). Внимание количество ограничено!!!

iTunes

1+1

iTunes

мы

iTunes

1

iTunes

Чернобыль

iTunes

Ральф против интернета

Лицензия

ПШазам

Лицензия

Игра престолов

Лицензия

30
pack

ВАЖНО

!!Акция!!

Alien_RageХит недели

RePack

Resident Evil 21

ИГРА 18+

pack

RePack

Metro:Exodus

!!Акция!!

Alien_Rage

RePack

fifa19

RePack

Assassins Creed: Odyssey

RePack

NEED FOR SPEED™ PAYBACK

3 сезон

9 сезон

Бесстыжие 9 сезон

Все сериалы

все сериалы на PB.wtf

RePack

FAR CRY 5
Ребята, катастрофически не хватает 1900р. для оплаты серверов за Октябрь (всвязи с блокировками трафик упал в 3 раза), 1-2р., выручайте.
  

Фронт / Трилогия / Фильм 1: Фронт без флангов / Фильм 2: Фронт за линией фронта / Фильм 3: Фронт в тылу врага (Игорь Гостев) [1974-1981 г., ВОВ, драма, DVDRip] pb.wtf

Фронт через торрент pb.wtf

Размер: 6.16 GB | Добавлен: 5 лет 7 мес. назад | Торрент скачан:95 раз
Скачать  

07-04-2014 09:10 Фронт Скачать торрент  

Фронт / Трилогия:Фильм 1: Фронт без фланговФильм 2: Фронт за линией фронтаФильм 3: Фронт в тылу врага




Фронт без флангов
Год выпуска: 1974
Страна: СССР
Жанр: ВОВ, драма
Продолжительность: 02:39:50

Режиссер: Игорь Гостев
Сценарий: Семен Днепров, Семен Цвигун

Премьера в мире: 21 апреля 1975



В ролях: Вячеслав Тихонов, Олег Жаков, Александр Денисов, Тофик Мирзоев, Семён Морозов, Галина Польских, Алексей Борзунов, Иван Переверзев, Евгений Шутов, Владимир Ивашов, Евгений Леонов-Гладышев, Светлана Суховей, Павел Кормунин, Людмила Полякова, Анатолий Соловьёв, Михаил Турченков, Юра Касаткин, Ханньо Хассе, Юрген Фрорип, Харри Питч, Хорст Шульце, Борис Бибиков, Вера Кузнецова, Валентин Печников, Николай Полищук, Александр Лукьянов (II), Владимир Заманский, Виктор Шульгин, Владимир Самойлов, Константин Желдин, Всеволод Сафонов, Раиса Куркина, Борис Юрченко, Николай Рудик, Владимир Ферапонтов, Михаил Розанов, Анвар Боранбаев

Описание: В августе 1941 года чекист майор Млынский с небольшой группой солдат стрелковой дивизии оказывается на территории, занятой врагом. Позже к ним присоединятся солдаты из других частей и Млынский возьмет на себя командование новым отрядом. Так в тылу у немецких войск, наступающих на Москву, начнет свою деятельность регулярная часть Красной Армии.

Качество: DVDRip
Формат: AVI
Видео кодек: DivX
Аудио кодек: AC3
Видео: DivX 5 704x384, 25.00fps, 1 647 Kbps
Аудио: Dolby AC3, 48000Hz, stereo, 384kbps
Релиз от: oldfred





General
Complete name : K:\ФРОНТ\Front_bez_flangov_[torrents.ru].avi
Format : AVI
Format/Info : Audio Video Interleave
Format profile : OpenDML
File size : 2.05 GiB
Duration : 2h 39mn
Overall bit rate : 1 840 Kbps
Writing application : VirtualDubMod 1.5.4.1 (build 2178/release)
Writing library : VirtualDubMod build 2178/release

Video
ID : 0
Format : MPEG-4 Visual
Format settings, BVOP : No
Format settings, QPel : No
Format settings, GMC : No warppoints
Format settings, Matrix : Default (H.263)
Codec ID : DX50
Codec ID/Hint : DivX 5
Duration : 2h 39mn
Bit rate : 1 447 Kbps
Width : 704 pixels
Height : 384 pixels
Display aspect ratio : 16:9
Frame rate : 25.000 fps
Color space : YUV
Chroma subsampling : 4:2:0
Bit depth : 8 bits
Scan type : Progressive
Compression mode : Lossy
Bits/(Pixel*Frame) : 0.214
Stream size : 1.62 GiB (79%)
Writing library : DivX 5.2.1 (WaffleDay) (UTC 2004-09-08)

Audio
ID : 1
Format : AC-3
Format/Info : Audio Coding 3
Mode extension : CM (complete main)
Codec ID : 2000
Duration : 2h 39mn
Bit rate mode : Constant
Bit rate : 384 Kbps
Channel(s) : 2 channels
Channel positions : Front: L R
Sampling rate : 48.0 KHz
Bit depth : 16 bits
Compression mode : Lossy
Stream size : 439 MiB (21%)
Alignment : Split accross interleaves
Interleave, duration : 96 ms (2.40 video frames)
Interleave, preload duration : 96 ms
Language : Russian


Фронт за линией фронта Год выпуска: 1977
Страна: СССР
Жанр: ВОВ, драма
Продолжительность: 2 х ~ 01:21:05

Режиссер: Игорь Гостев
Сценарий: Семен Днепров, Семен Цвигун

Премьера в мире: 9 октября 1978



В ролях: Вячеслав Тихонов, Иван Лапиков, Евгений Матвеев, Галина Польских, Валерия Заклунная, Олег Жаков, Иван Переверзев, Юрий Толубеев, Ханньо Хассе, Харри Питч, Гирт Яковлев, Игорь Ледогоров, Георгий Николаенко, Мати Клоорен, Михаил Жарковский, Александр Романцов, Афанасий Кочетков, Марина Дюжева, Светлана Суховей, Татьяна Божок

Описание: Двухсерийиный фильм продолжает повествование фильма «Фронт без флангов», действие происходит зимой 1943 — в начале 1944 годов.Отряд во главе с опытным чекистом майором Млынским успешно сражается в Черных лесах с гестаповскими карателями и с регулярными частями гитлеровской армии. На Большую землю идут ценные разведданные. По доносу предателя гестаповцы арестуют жену Млынского и его сына Володю, желая с их помощью заманить командира отряда в ловушку. Однако стойкость супругов Млынских и помощь подпольщиков, оставленных в городе, срывают все планы карателей.

Качество: DVDRip
Формат: AVI
Видео кодек: DivX
Аудио кодек: AC3
Видео: DivX 5 704x368, 25.00fps , 1 455 Kbps
Аудио: Dolby AC3, 48000Hz, stereo, 384kbps
Релиз от: blazer





General
Complete name : K:\ФРОНТ\Front_za_liniey_fronta_(2_serii_iz_2)_[torrents.ru]\Front.za.liniey.fronta.1.seriya.iz.2.avi
Format : AVI
Format/Info : Audio Video Interleave
File size : 1.03 GiB
Duration : 1h 19mn
Overall bit rate : 1 846 Kbps
Writing application : VirtualDubMod 1.5.4.1 (build 2178/release)
Writing library : VirtualDubMod build 2178/release

Video
ID : 0
Format : MPEG-4 Visual
Format settings, BVOP : 1
Format settings, QPel : No
Format settings, GMC : No warppoints
Format settings, Matrix : Default (H.263)
Muxing mode : Packed bitstream
Codec ID : DX50
Codec ID/Hint : DivX 5
Duration : 1h 19mn
Bit rate : 1 455 Kbps
Width : 704 pixels
Height : 368 pixels
Display aspect ratio : 1.913
Frame rate : 25.000 fps
Color space : YUV
Chroma subsampling : 4:2:0
Bit depth : 8 bits
Scan type : Progressive
Compression mode : Lossy
Bits/(Pixel*Frame) : 0.225
Stream size : 828 MiB (79%)
Writing library : DivX 6.8.0 (UTC 2007-12-04)

Audio
ID : 1
Format : AC-3
Format/Info : Audio Coding 3
Mode extension : CM (complete main)
Codec ID : 2000
Duration : 1h 19mn
Bit rate mode : Constant
Bit rate : 384 Kbps
Channel(s) : 2 channels
Channel positions : Front: L R
Sampling rate : 48.0 KHz
Bit depth : 16 bits
Compression mode : Lossy
Stream size : 218 MiB (21%)
Alignment : Split accross interleaves
Interleave, duration : 96 ms (2.40 video frames)
Interleave, preload duration : 96 ms
Language : Russian


Фронт в тылу врага Год выпуска: 1981
Страна: СССР
Жанр: ВОВ, драма
Продолжительность: 2 х ~ 01:18:05

Режиссер: Игорь Гостев
Сценарий: Семен Днепров, Семен Цвигун

Премьера в мире: 28 апреля 1982



В ролях: Вячеслав Тихонов, Иван Лапиков, Евгений Матвеев, Галина Польских, Валерия Заклунная, Олег Жаков, Иван Переверзев, Юрий Толубеев, Ханньо Хассе, Харри Питч, Гирт Яковлев, Игорь Ледогоров, Георгий Николаенко, Мати Клоорен, Михаил Жарковский, Александр Романцов, Афанасий Кочетков, Марина Дюжева, Светлана Суховей, Татьяна Божок

Описание: Третий фильм кинотрилогии ("Фронт без флангов" - "Фронт за линией фронта" - "Фронт в тылу врага") по мотивам документального романа С.Цвигуна "Мы вернёмся". Июль 1944 года - май 1945 года. Отряд особого назначения полковника Млынского получает задание идти на помощь интернациональному соединению поляков, чехов и словаков, и вместе с ними захватить полигон, где нацисты испытывают новое секретное оружие ФАУ..

Качество: DVDRip
Формат: AVI
Видео кодек: DivX
Аудио кодек: AC3
Видео: DivX 5 704x368, 25.00fps, 1 455 Kbps
Аудио: Dolby AC3, 48000Hz, stereo, 384kbps
Релиз от: floks





General
Complete name : K:\ФРОНТ\Front_v_tilu_vraga_(2_serii_iz_2)_[torrents.ru]\Front.v.tilu.vraga.1.seriya.iz.2.avi
Format : AVI
Format/Info : Audio Video Interleave
File size : 1.03 GiB
Duration : 1h 12mn
Overall bit rate : 2 038 Kbps
Writing application : VirtualDubMod 1.5.4.1 (build 2178/release)
Writing library : VirtualDubMod build 2178/release

Video
ID : 0
Format : MPEG-4 Visual
Format settings, BVOP : 1
Format settings, QPel : No
Format settings, GMC : No warppoints
Format settings, Matrix : Default (H.263)
Muxing mode : Packed bitstream
Codec ID : DX50
Codec ID/Hint : DivX 5
Duration : 1h 12mn
Bit rate : 1 647 Kbps
Width : 704 pixels
Height : 384 pixels
Display aspect ratio : 16:9
Frame rate : 25.000 fps
Color space : YUV
Chroma subsampling : 4:2:0
Bit depth : 8 bits
Scan type : Progressive
Compression mode : Lossy
Bits/(Pixel*Frame) : 0.244
Stream size : 849 MiB (81%)
Writing library : DivX 6.8.0 (UTC 2007-12-04)

Audio
ID : 1
Format : AC-3
Format/Info : Audio Coding 3
Mode extension : CM (complete main)
Codec ID : 2000
Duration : 1h 12mn
Bit rate mode : Constant
Bit rate : 384 Kbps
Channel(s) : 2 channels
Channel positions : Front: L R
Sampling rate : 48.0 KHz
Bit depth : 16 bits
Compression mode : Lossy
Stream size : 198 MiB (19%)
Alignment : Split accross interleaves
Interleave, duration : 96 ms (2.40 video frames)
Interleave, preload duration : 96 ms
Language : Russian

pb.wtf



Скачать Фронт через торрент http://pic.kartinco.top/images/6/zmewd.jpg Скачать фильм Фронт через торрент бесплантно в хорошем качестве Описание: В августе 1941 года чекист майор Млынский с небольшой группой солдат стрелковой дивизии оказывается на территории, занятой ... 9.9 10 13
Info! Золотая раздача, скачанное не засчитывается.
Торрент: Зарегистрирован [2014-04-07 09:10] · скачан: 95 раз
Статус: √ проверено
Размер: 6.16 GB
Как cкачать? Как скачать Фронт через торрент | qTorrent


>> Регистрируемся здесь <<






Отзывы и комментарии о схеме читаем и пишем здесь: ---> Отзывы и комментарии о схеме

Новые благодарочки в телеграм довольных пользователей:
скриншот   скриншот   скриншот   скриншот   скриншот
    Дорогой пользователь! Огромная просьба, поблагодарите релизера, оцените раздачу и оставьте свои комментарий, если Вы скачали Фронт через торрент бесплатно! Внесите свою лепту в развитие PiratBit!
    Комментировать посты могут только пользователи прошедшие не сложную регистрацию
    Показать сообщения:    

    Фронт через торрент
    Скачать бесплатно Фронт
    Фронт скачать торрент
    Фронт смотреть онлайн
    Cкачать фильм Фронт бесплатно
    Фронт скачать торрент в хорошем качестве
    Фронт смотреть онлайн бесплатно в хорошем качестве


    Вы не можете начинать темы
    Вы не можете отвечать на сообщения
    Вы не можете редактировать свои сообщения
    Вы не можете удалять свои сообщения
    Вы не можете голосовать в опросах
    Вы не можете прикреплять файлы к сообщениям
    Вы можете скачивать файлы