1 сезон

1 сезон

iTunes

1

КиноПоиск HD

Кинопоиск HD

iTunes

13

1 сезон

RePack

30

Новинка

ВАЖНО

ИГРА 18+

pack

RePack

MK11
pack

Легкие деньги

RePack

jed

RePack

fifa19

RePack

RDR2

RePack

NEED FOR SPEED™ PAYBACK

4 сезон

9 сезон

Бесстыжие 9 сезон

Все сериалы

все сериалы на PB.wtf

RePack

FAR CRY 5
  
Magnet ссылка

Старая закалка / Старая школа / Old School (Тодд Филлипс) [2003 г., Комедия, BDRip,Профессиональный (Многоголосый, закадровый)] pb.wtf

Старая закалка через торрент pb.wtf

Размер: 1.45 GB | Добавлен: 7 лет назад | Торрент скачан:126 раз
Скачать  

07-04-2014 10:31 Старая закалка Скачать торрент  

Старая закалка / Старая школа / Old School Год выпуска: 2003
Страна: США
Жанр: Комедия
Продолжительность: 01:31:50
Перевод: Профессиональный (Многоголосый, закадровый)

Режиссер: Тодд Филлипс



В ролях:Люк Уилсон,Уилл Феррелл,Винс Вон,Джереми Пивен,Эллен Помпео,Джульетт Льюис,Леа Ремини,Перри Ривз,Крэйг Килборн,Элиша Катберт

Описание: итчу, Френку и Берни уже за тридцатник, скоро они станут ответственными взрослыми, женятся, заведут семьи и найдут работу, а детство всё не перестаёт в них бурлить.
Очередной озорной придумкой становится попытка вновь пережить сладкие мгновения совместной учёбы в колледже, когда их слава гремела буквально по всем углам. Они снимают большой дом близ колледжа и устраивают в нём «студенческое братство»…

Качество: BDRip
Формат: AVI
Видео кодек: XviD
Аудио кодек: AC3
Видео: 720x304 (2.37:1), 23.976 fps, XviD build 57 ~1870 kbps avg, 0.36 bit/pixel
Аудио#1: 48 kHz, AC3 Dolby Digital, 3/2 (L,C,R,l,r) + LFE ch, ~384 kbps







General
Complete name : D:\Загрузка\Фильмы\Staraya.zakalka.UNRATED.2003.RUS.BDRip.XviD.AC3.-HQCLUB.avi
Format : AVI
Format/Info : Audio Video Interleave
File size : 1.45 GiB
Duration : 1h 31mn
Overall bit rate : 2 264 Kbps
Movie name : Old School [Unrated] (2003) BDRip
Director : Vиkt0R
Genre : Comedy
Writing application : VirtualDubModRus 1.5.10.2 (build 2542/release)
Copyright : hqclub.net
Comment : R.G. HQCLUB

Video
ID : 0
Format : MPEG-4 Visual
Format profile : Advanced Simple@L5
Format settings, BVOP : 1
Format settings, QPel : No
Format settings, GMC : No warppoints
Format settings, Matrix : Custom
Codec ID : XVID
Codec ID/Hint : XviD
Duration : 1h 31mn
Bit rate : 1 871 Kbps
Width : 720 pixels
Height : 304 pixels
Display aspect ratio : 2.35:1
Frame rate : 23.976 fps
Color space : YUV
Chroma subsampling : 4:2:0
Bit depth : 8 bits
Scan type : Progressive
Compression mode : Lossy
Bits/(Pixel*Frame) : 0.357
Stream size : 1.20 GiB (83%)
Writing library : XviD 57

Audio
ID : 1
Format : AC-3
Format/Info : Audio Coding 3
Mode extension : CM (complete main)
Format settings, Endianness : Big
Codec ID : 2000
Duration : 1h 31mn
Bit rate mode : Constant
Bit rate : 384 Kbps
Channel(s) : 6 channels
Channel positions : Front: L C R, Side: L R, LFE
Sampling rate : 48.0 KHz
Bit depth : 16 bits
Compression mode : Lossy
Stream size : 252 MiB (17%)
Alignment : Split accross interleaves
Interleave, duration : 42 ms (1.00 video frame)
Interleave, preload duration : 500 ms

pb.wtf



Скачать Старая закалка через торрент https://pic.kartinco.top/images/6/tdajg.jpg Скачать фильм Старая закалка через торрент бесплантно в хорошем качестве Описание: итчу, Френку и Берни уже за тридцатник, скоро они станут ответственными взрослыми, женятся, заведут семьи и найдут работу, а ... 9.1 10 7
Торрент: Зарегистрирован [2014-04-07 10:31] · скачан: 126 раз
Статус: √ проверено
Размер: 1.45 GB
Как cкачать? Как скачать Старая закалка через торрент | UTorrent

% Раздел Тема Автор DL S | L
Фильмы [HD 720p, 1080p] (Хороший звук DUB, MVO) [ 5.76 GB ] Старая закалка / Старая школа / Old School [2003 BDRip 720p от _denis_100 / NNNB] DUB 2xMVO DVO VO + Original + Sub Unrated _denis_100 Скачать
1 | 0
Зарубежные сериалы [ 5.75 GB ] Старая закалка / Старая школа / Old School / Сезон: 1 / серия 1-8 из 8 [ 2014 Австралия PDTVRip] MVO GEKADOL Скачать
1 | 0

28-11-2019 20:33  

Отключить всю рекламу на сайте

    Дорогой пользователь! Огромная просьба, поблагодарите релизера, оцените раздачу и оставьте свои комментарий, если Вы скачали Старая закалка через торрент бесплатно! Внесите свою лепту в развитие PiratBit!
    Комментировать посты могут только пользователи прошедшие не сложную регистрацию
    Показать сообщения:    

    Старая закалка через торрент
    Скачать бесплатно Старая закалка
    Старая закалка скачать торрент
    Старая закалка смотреть онлайн
    Cкачать фильм Старая закалка бесплатно
    Старая закалка скачать торрент в хорошем качестве
    Старая закалка смотреть онлайн бесплатно в хорошем качестве


    Вы не можете начинать темы
    Вы не можете отвечать на сообщения
    Вы не можете редактировать свои сообщения
    Вы не можете удалять свои сообщения
    Вы не можете голосовать в опросах
    Вы не можете прикреплять файлы к сообщениям
    Вы можете скачивать файлы