2 сезон

iTunes

MVO

1

2 сезон

iTunes

iTunes

1 сезон

RePack

30

Ultimate

ВАЖНО

ИГРА 18+

pack

RePack

MK11
pack

Легкие деньги

RePack

jed

RePack

fifa19

RePack

RDR2

RePack

NEED FOR SPEED™ PAYBACK

4 сезон

9 сезон

Бесстыжие 9 сезон

Все сериалы

все сериалы на PB.wtf

RePack

FAR CRY 5

Anonymous, доброй ночи, мы не успеваем собрать деньги на оплату серверов за декабрь и январь, помогите нам пожалуйста в это трудное время. В качестве благодарности мы отключим Вам всю рекламу на сайте (укажите свой ник в строку Ваше имя)!

×
  
Magnet ссылка

Мизерере / La marque des anges - Miserere (Сильвен Уайт / Sylvain White) [2013, Франция, Бельгия, триллер, HDRip,Профессиональный (многоголосый, закадровый)[Лицензия] pb.wtf

Мизерере через торрент pb.wtf

Размер: 1.45 GB | Добавлен: 6 лет 9 мес. назад | Торрент скачан:1027 раз
Скачать  

07-04-2014 20:13 Мизерере Скачать торрент  

Мизерере / La marque des anges - Miserere

  • Год выпуска: 2013
  • Страна:Франция, Бельгия
  • Жанр:триллер
  • Продолжительность:01:45:50
  • Перевод:Профессиональный (многоголосый, закадровый)[Лицензия]
  • Субтитры: Нет
  • Режиссер: Сильвен Уайт / Sylvain White

  • В ролях:

    Жерар Депардье (Lionel Kasdan), Джои Старр (Frank Salek), Рюдигер Фоглер (Franz Hartmann), Элена Ногуэрра (Angela Colson), Марта Келлер (Laura Bernheim), Тьерри Лермитт (Vernoux), Кевин Меффр (Naciro), Иван Франек (Vargos), Жерар Шеллу (Sarkis), Джеймс Жерар (Bill Ward), Джо Шеридан (Goetz Willhen), Том Хоффман (Sean Singleton)

    • Описание:
      В армянском соборе Святого Иоанна Крестителя в Париже убит чилийский беженец Вильгельм Гетц, регент хора мальчиков и органист. Касдан, офицер полиции в отставке и прихожанин собора, немедленно начинает собственное неофициальное расследование. К нему присоединяется Фрэнк Салек из отдела по защите прав несовершеннолетних. Оказывается, в прошлом исчезло несколько мальчиков из хоров, которыми руководил Гетц. За первым преступлением следуют еще более кровавые убийства. Между полным опасностей расследованием, в которое пускаются герои, и старинным хоралом «Мизерере» существует таинственная связь...

    Мировая премьера:26 июня 2013

    • Качество: HDRip
    • Формат: AVI
    • Видео кодек: XviD
    • Аудио кодек:AC3
    • Видео: XviD, 720x304 (2.35:1), 1508 kbps, 23,976 fps, 0,288 bpp
    • Аудио: AC3 / 5.1 / 48 kHz / 448 kbps / 16 bit


    Код:

    General
    Complete name                            : D:\Торенты\Miserere.2013.P.HDRip.avi
    Format                                   : AVI
    Format/Info                              : Audio Video Interleave
    File size                                : 1.45 GiB
    Duration                                 : 1h 45mn
    Overall bit rate                         : 1 966 Kbps
    Writing application                      : VirtualDubMod 1.5.10.2 (build 2540/release)
    Writing library                          : VirtualDubMod build 2540/release

    Video
    ID                                       : 0
    Format                                   : MPEG-4 Visual
    Format profile                           : Simple@L3
    Format settings, BVOP                    : No
    Format settings, QPel                    : No
    Format settings, GMC                     : No warppoints
    Format settings, Matrix                  : Default (H.263)
    Codec ID                                 : XVID
    Codec ID/Hint                            : XviD
    Duration                                 : 1h 45mn
    Bit rate                                 : 1 509 Kbps
    Width                                    : 720 pixels
    Height                                   : 304 pixels
    Display aspect ratio                     : 2.35:1
    Frame rate                               : 23.976 fps
    Color space                              : YUV
    Chroma subsampling                       : 4:2:0
    Bit depth                                : 8 bits
    Scan type                                : Progressive
    Compression mode                         : Lossy
    Bits/(Pixel*Frame)                       : 0.288
    Stream size                              : 1.12 GiB (77%)
    Writing library                          : XviD 1.1.2 (UTC 2006-11-01)

    Audio
    ID                                       : 1
    Format                                   : AC-3
    Format/Info                              : Audio Coding 3
    Mode extension                           : CM (complete main)
    Codec ID                                 : 2000
    Duration                                 : 1h 45mn
    Bit rate mode                            : Constant
    Bit rate                                 : 448 Kbps
    Channel(s)                               : 6 channels
    Channel positions                        : Front: L C R, Side: L R, LFE
    Sampling rate                            : 48.0 KHz
    Bit depth                                : 16 bits
    Compression mode                         : Lossy
    Stream size                              : 339 MiB (23%)
    Alignment                                : Split accross interleaves
    Interleave, duration                     : 42 ms (1.00 video frame)
    Interleave, preload duration             : 500 ms

    Скриншоты:

    Каталог Новинок (Фильмы-трейлеры, Игры, Сериалы, Мультфильмы)

    © Оформление by Raven
    pb.wtf



  • Скачать Мизерере через торрент http://pic.kartinco.top/images/6/yllto.jpg Скачать фильм Мизерере через торрент бесплантно в хорошем качестве Описание:В армянском соборе Святого Иоанна Крестителя в Париже убит чилийский беженец Вильгельм Гетц, регент хора мальчиков и органист. ... 9.9 10 24
    Торрент: Зарегистрирован [2014-04-07 20:13] · скачан: 1 027 раз
    Статус: √ проверено
    Размер: 1.45 GB
    Как cкачать? Как скачать Мизерере через торрент | UTorrent

    % Раздел Тема Автор DL S | L
    Фильмы 2013 [DVDrip, WEB-DLRip, HDrip] [ 2.05 GB ] Мизерере / La marque des anges - Miserere [2013 Бельгия HDRip ] XLASER Скачать
    1 | 0
    Фильмы [HD 720p, 1080p] (Хороший звук DUB, MVO) [ 4.55 GB ] Мизерере / La marque des anges - Miserere [2013 BDRip 720p многоголосый] Андрей фил Скачать
    1 | 0
    Фильмы 2013 [DVDrip, WEB-DLRip, HDrip] [ 1.46 GB ] Мизерере / La marque des anges - Miserere [2013 HDRip многоголосый] кэп Скачать
    1 | 0
    T Фильмы 2013 (Звук TS, Cam, VO, DVO) [ 1.46 GB ] Мизерере / La marque des anges - Miserere [2013 Бельгия HDRip] VO +Original Ворон Скачать
    1 | 0

    28-11-2019 20:33  

    Отключить всю рекламу на сайте

    08-04-2014 21:07 Мизерере Скачать торрент  

    пока что не скачивал но интересно что за фильм !стоит или не стоит его смотреть?pb.wtf



    09-05-2014 20:28 Мизерере Скачать торрент  

    офигенный фильм на 10!!! жерар в удареpb.wtf



      Дорогой пользователь! Огромная просьба, поблагодарите релизера, оцените раздачу и оставьте свои комментарий, если Вы скачали Мизерере через торрент бесплатно! Внесите свою лепту в развитие PiratBit!
      Комментировать посты могут только пользователи прошедшие не сложную регистрацию
      Показать сообщения:    

      Мизерере через торрент
      Скачать бесплатно Мизерере
      Мизерере скачать торрент
      Мизерере смотреть онлайн
      Cкачать фильм Мизерере бесплатно
      Мизерере скачать торрент в хорошем качестве
      Мизерере смотреть онлайн бесплатно в хорошем качестве


      Вы не можете начинать темы
      Вы не можете отвечать на сообщения
      Вы не можете редактировать свои сообщения
      Вы не можете удалять свои сообщения
      Вы не можете голосовать в опросах
      Вы не можете прикреплять файлы к сообщениям
      Вы можете скачивать файлы